<svg xmlns="http://www.w3.org/2000/svg">
<defs>
<font
     horiz-adv-x="1000"
     id="font3"><!-- Ebisu is a trademark of Thinkdust. --><!-- Copyright: Copyright 2016 Adobe System Incorporated. All rights reserved. --><font-face
       font-family="Ebisu"
       units-per-em="1000"
       underline-position="-75"
       underline-thickness="50"
       id="font-face5" /><missing-glyph
       horiz-adv-x="290"
       id="missing-glyph7" /><glyph
       unicode=" "
       horiz-adv-x="290"
       id="glyph9" /><glyph
       unicode=","
       horiz-adv-x="225"
       d="M157,120l17,-187l-79,-10l-49,174z"
       id="glyph11" /><glyph
       unicode="-"
       horiz-adv-x="429"
       d="M373,344l0,-114l-317,0l0,114z"
       id="glyph13" /><glyph
       unicode="."
       horiz-adv-x="227"
       d="M55,52C55,67 61,81 72,94C83,107 98,113 116,113C131,113 145,107 156,94C167,81 172,67 172,52C172,37 167,24 156,13C145,2 131,-4 116,-4C98,-4 83,2 72,13C61,24 55,37 55,52z"
       id="glyph15" /><glyph
       unicode=":"
       horiz-adv-x="229"
       d="M56,52C56,67 62,81 73,94C84,107 99,113 117,113C132,113 146,107 157,94C168,81 173,67 173,52C173,37 168,24 157,13C146,2 132,-4 117,-4C99,-4 84,2 73,13C62,24 56,37 56,52M56,403C56,421 62,436 73,447C84,458 99,464 117,464C132,464 146,458 157,447C168,436 173,421 173,403C173,388 168,375 157,364C146,353 132,347 117,347C99,347 84,353 73,364C62,375 56,388 56,403z"
       id="glyph17" /><glyph
       unicode=";"
       horiz-adv-x="226"
       d="M54,405C54,422 60,437 71,448C82,459 95,465 110,465C127,465 142,459 153,448C164,437 170,422 170,405C170,390 164,377 153,366C142,355 127,349 110,349C95,349 82,355 71,366C60,377 54,390 54,405M157,120l17,-187l-79,-10l-49,174z"
       id="glyph19" /><glyph
       unicode="&lt;"
       horiz-adv-x="670"
       d="M58,295l528,219l0,-89l-410,-175C176,250 177,250 178,249C179,248 184,246 192,243C199,240 211,235 228,228C244,221 267,211 298,199C328,186 366,170 413,151C460,132 517,108 585,80l0,-89l-528,219z"
       id="glyph21" /><glyph
       unicode="="
       horiz-adv-x="571"
       d="M514,230l0,-114l-457,0l0,114M514,398l0,-114l-457,0l0,114z"
       id="glyph23" /><glyph
       unicode="&gt;"
       horiz-adv-x="669"
       d="M586,210l-528,-219l0,89C126,108 183,132 230,151C277,170 315,186 346,199C376,211 399,221 416,228C432,235 444,240 452,243C459,246 464,248 465,249C466,250 467,250 467,250l-410,175l0,89l528,-219z"
       id="glyph25" /><glyph
       unicode="A"
       horiz-adv-x="750"
       d="M577,0l-59,135C517,138 514,140 510,140l-271,0C235,140 232,138 231,135l-56,-135l-154,0l299,750l109,0l301,-750M375,495C374,495 373,494 373,493C372,492 372,492 372,491l-84,-211C287,279 287,278 287,276C287,274 288,273 291,273l167,0C461,273 462,274 462,277C462,278 462,279 461,280l-83,211C377,492 377,492 377,493C376,494 375,495 375,495z"
       id="glyph27" /><glyph
       unicode="C"
       horiz-adv-x="713"
       d="M437,615C403,614 371,607 342,594C313,581 287,564 266,543C245,522 228,497 216,468C203,439 197,408 197,375C197,342 204,311 217,283C230,254 248,229 271,208C293,187 319,170 348,157C377,144 406,137 437,135C466,135 493,140 519,149C544,158 567,171 588,188l88,-114C673,71 665,65 654,56C642,47 626,38 606,29C586,19 562,10 534,3C506,-4 474,-8 437,-8C384,-8 334,2 288,22C241,42 201,69 166,104C131,139 104,179 84,226C64,272 54,322 54,375C54,428 64,477 84,524C104,571 131,611 166,646C201,681 241,708 288,728C334,748 384,758 437,758C474,758 506,754 534,747C562,740 586,731 606,722C626,712 642,703 654,694C665,685 673,679 676,676l-88,-114C567,579 544,592 519,601C493,610 466,615 437,615z"
       id="glyph29" /><glyph
       unicode="D"
       horiz-adv-x="734"
       d="M303,143C337,143 368,149 397,160C426,171 450,187 471,208C492,228 508,252 520,281C531,310 537,341 537,375C537,409 532,440 521,469C510,498 494,522 474,543C454,563 430,579 402,590C374,601 343,607 309,607l-103,0C202,607 200,605 200,601l0,-452C200,145 202,143 206,143M57,750l246,0C355,750 404,740 450,720C496,700 536,673 570,639C604,605 631,565 651,520C670,475 680,426 680,375C680,324 670,275 651,230C631,185 604,145 570,111C536,77 496,50 450,30C404,10 355,0 303,0l-246,0z"
       id="glyph31" /><glyph
       unicode="E"
       horiz-adv-x="527"
       d="M200,149C200,145 202,143 206,143l263,0l0,-143l-412,0l0,750l412,0l0,-143l-263,0C202,607 200,605 200,601l0,-147C200,450 202,448 206,448l263,0l0,-143l-263,0C202,305 200,303 200,299z"
       id="glyph33" /><glyph
       unicode="F"
       horiz-adv-x="520"
       d="M57,750l413,0l0,-143l-264,0C202,607 200,605 200,601l0,-147C200,450 202,448 206,448l264,0l0,-143l-264,0C202,305 200,303 200,299l0,-299l-143,0z"
       id="glyph35" /><glyph
       unicode="G"
       horiz-adv-x="800"
       d="M750,279C750,243 743,208 730,174C717,139 697,109 671,82C644,55 612,33 573,17C534,0 489,-8 438,-8C385,-8 335,2 289,22C242,42 202,69 167,104C132,139 105,179 85,226C65,272 55,322 55,375C55,428 65,477 85,524C105,571 132,611 167,646C202,681 242,708 289,728C335,748 385,758 438,758C475,758 507,754 535,747C563,740 587,731 607,722C627,712 643,703 655,694C666,685 674,679 677,676l-88,-114C568,579 545,592 520,601C494,610 467,615 438,615C405,615 374,609 345,596C316,583 290,566 269,545C247,523 230,498 217,469C204,440 198,408 198,375C198,342 204,311 217,282C230,253 247,227 269,206C290,184 316,167 345,154C374,141 405,135 438,135C456,135 474,138 493,144C511,150 527,158 542,169C557,180 569,192 578,206C587,219 591,234 591,250C591,251 591,251 592,252C592,252 592,252 592,253C592,255 591,256 588,256l-166,0l0,143l327,0z"
       id="glyph37" /><glyph
       unicode="H"
       horiz-adv-x="656"
       d="M456,750l143,0l0,-750l-143,0l0,299C456,303 454,305 450,305l-244,0C202,305 200,303 200,299l0,-299l-143,0l0,750l143,0l0,-296C200,450 202,448 206,448l244,0C454,448 456,450 456,454z"
       id="glyph39" /><glyph
       unicode="I"
       horiz-adv-x="257"
       d="M200,750l0,-750l-143,0l0,750z"
       id="glyph41" /><glyph
       unicode="J"
       horiz-adv-x="471"
       d="M161,169C164,158 171,149 181,143C191,137 202,134 214,134C231,134 246,140 259,153C271,166 277,181 277,199l0,551l143,0l0,-551C420,170 415,143 404,118C393,93 379,71 360,52C341,33 320,19 295,8C270,-3 243,-8 214,-8C176,-8 141,1 110,20C78,38 53,63 36,95z"
       id="glyph43" /><glyph
       unicode="L"
       horiz-adv-x="500"
       d="M451,143l0,-143l-394,0l0,751l143,0l0,-596C200,147 204,143 212,143z"
       id="glyph45" /><glyph
       unicode="N"
       horiz-adv-x="711"
       d="M191,750l320,-475l0,116l0,358l143,0l0,-749l-133,0l-321,475l0,-116l0,-359l-143,0l0,749z"
       id="glyph47" /><glyph
       unicode="O"
       horiz-adv-x="876"
       d="M55,375C55,428 65,477 85,524C105,571 132,611 167,646C202,681 242,708 289,728C335,748 385,758 438,758C491,758 540,748 587,728C634,708 674,681 709,646C744,611 771,571 791,524C811,477 821,428 821,375C821,322 811,272 791,226C771,179 744,139 709,104C674,69 634,42 587,22C540,2 491,-8 438,-8C385,-8 335,2 289,22C242,42 202,69 167,104C132,139 105,179 85,226C65,272 55,322 55,375M198,375C198,342 204,311 217,282C230,253 247,227 269,206C290,184 316,167 345,154C374,141 405,135 438,135C471,135 503,141 532,154C561,167 586,184 608,206C629,227 646,253 659,282C672,311 678,342 678,375C678,408 672,440 659,469C646,498 629,523 608,545C586,566 561,583 532,596C503,609 471,615 438,615C405,615 374,609 345,596C316,583 290,566 269,545C247,523 230,498 217,469C204,440 198,408 198,375z"
       id="glyph49" /><glyph
       unicode="Q"
       horiz-adv-x="876"
       d="M55,375C55,428 65,477 85,524C105,571 132,611 167,646C202,681 242,708 289,728C335,748 385,758 438,758C491,758 540,748 587,728C634,708 674,681 709,646C744,611 771,571 791,524C811,477 821,428 821,375C821,330 814,288 800,249C785,209 765,173 740,140l58,-55l-106,-95C692,-10 690,-8 685,-3C680,2 674,7 668,13C661,19 655,25 649,31C642,37 637,42 634,45C605,28 574,15 541,6C508,-3 474,-8 438,-8C385,-8 335,2 289,22C242,42 202,69 167,104C132,139 105,179 85,226C65,272 55,322 55,375M198,375C198,342 204,311 217,282C230,253 247,227 269,206C290,184 316,167 345,154C374,141 405,135 438,135C469,135 500,141 531,154C529,156 525,161 518,168C511,175 503,182 496,190C487,199 478,209 467,220l100,95l70,-73C650,261 661,282 668,305C675,327 678,350 678,375C678,408 672,440 659,469C646,498 629,523 608,545C586,566 561,583 532,596C503,609 471,615 438,615C405,615 374,609 345,596C316,583 290,566 269,545C247,523 230,498 217,469C204,440 198,408 198,375z"
       id="glyph51" /><glyph
       unicode="T"
       horiz-adv-x="583"
       d="M219,596l0,6C219,603 219,603 218,604C216,606 215,607 214,607l-161,0l0,143l477,0l0,-143l-162,0l-6,-5l0,-6l0,-596l-143,0z"
       id="glyph53" /><glyph
       unicode="V"
       horiz-adv-x="690"
       d="M666,750l-267,-750l-109,0l-263,750l153,0l162,-494C342,255 342,255 343,254C343,253 344,252 345,252C345,252 346,253 347,254C347,255 347,255 348,256l163,494z"
       id="glyph55" /><glyph
       unicode="Y"
       horiz-adv-x="594"
       d="M174,750l120,-300C295,448 296,447 297,447C298,447 299,448 300,450l121,299l156,0l-208,-479l0,-270l-143,0l0,270l-210,480z"
       id="glyph57" /><glyph
       unicode="Z"
       horiz-adv-x="586"
       d="M352,590C354,594 355,597 355,599C355,604 349,607 338,607l-282,0l0,143l472,0l0,-111C528,639 524,632 516,619C507,605 496,587 482,565C468,542 452,517 435,489C417,460 399,431 380,401C361,371 343,341 325,312C307,283 291,257 277,234C263,211 252,192 243,177C234,162 230,153 230,151C230,146 236,143 247,143l281,0l0,-143l-472,0l0,110C112,199 162,279 205,350C224,380 242,409 260,438C277,467 293,492 307,515C320,538 331,556 340,570C348,583 352,590 352,590z"
       id="glyph59" /><glyph
       unicode="_"
       horiz-adv-x="670"
       d="M670,-64l0,-71l-670,0l0,71z"
       id="glyph61" /><glyph
       unicode="|"
       horiz-adv-x="228"
       d="M171,0l-114,0l0,750l114,0z"
       id="glyph63" /><glyph
       unicode="¤"
       horiz-adv-x="705"
       d="M153,206C140,225 129,247 122,270C114,293 110,317 110,341C110,366 114,390 123,412C132,434 142,456 155,477l-99,98l61,61l99,-99C239,550 262,561 283,569C304,577 329,581 356,581C381,581 404,577 425,568C446,559 466,549 487,537l99,98l61,-60l-97,-97C563,457 574,436 583,413C591,390 595,365 595,340C595,315 591,292 583,271C575,249 565,227 552,206l97,-97l-60,-61l-97,97C449,114 402,99 351,99C327,99 303,104 280,113C257,122 235,132 214,144l-97,-96l-60,61M353,483C334,483 316,479 299,472C282,464 267,454 254,441C241,428 230,413 223,396C216,379 212,360 212,341C212,322 216,304 223,287C230,270 241,255 254,242C267,229 282,219 299,212C316,204 334,200 353,200C372,200 391,204 408,211C425,218 439,229 452,242C465,255 475,270 482,287C489,304 493,322 493,341C493,360 489,379 482,396C475,413 465,428 452,441C439,454 425,464 408,472C391,479 372,483 353,483z"
       id="glyph65" /><glyph
       unicode="¥"
       horiz-adv-x="664"
       d="M611,535l0,-81l-127,0l-41,-94l168,0l0,-81l-203,0l-4,-11l0,-268l-143,0l0,268l-5,11l-204,0l0,81l170,0l-42,94l-128,0l0,81l93,0l-93,215l157,0l120,-300C330,448 331,447 332,447C333,447 334,448 335,450l120,299l156,0l-92,-214z"
       id="glyph67" /><glyph
       unicode="¦"
       horiz-adv-x="227"
       d="M57,302l114,0l0,-312l-114,0M57,770l114,0l0,-315l-114,0z"
       id="glyph69" /><glyph
       unicode="¬"
       horiz-adv-x="630"
       d="M573,419l0,-341l-114,0l0,227l-410,0l0,114z"
       id="glyph71" /><glyph
       unicode="°"
       horiz-adv-x="432"
       d="M55,563C55,585 59,606 68,626C76,645 87,662 102,677C117,692 134,703 154,712C173,720 194,724 216,724C238,724 259,720 279,712C298,703 315,692 330,677C345,662 356,645 365,626C373,606 377,585 377,563C377,541 373,520 365,501C356,481 345,464 330,449C315,434 298,423 279,415C259,406 238,402 216,402C194,402 173,406 154,415C134,423 117,434 102,449C87,464 76,481 68,501C59,520 55,541 55,563M123,563C123,550 126,538 131,527C136,516 142,506 151,498C159,489 169,483 180,478C191,473 203,470 216,470C229,470 241,473 252,478C263,483 273,489 282,498C290,506 297,516 302,527C307,538 309,550 309,563C309,576 307,588 302,599C297,610 290,620 282,629C273,637 263,644 252,649C241,654 229,656 216,656C203,656 191,654 180,649C169,644 159,637 151,629C142,620 136,610 131,599C126,588 123,576 123,563z"
       id="glyph73" /><glyph
       unicode="·"
       horiz-adv-x="227"
       d="M55,376C55,391 61,405 72,418C83,431 98,437 116,437C131,437 145,431 156,418C167,405 172,391 172,376C172,361 167,348 156,337C145,326 131,320 116,320C98,320 83,326 72,337C61,348 55,361 55,376z"
       id="glyph75" /><glyph
       unicode="×"
       horiz-adv-x="574"
       d="M85,389l81,80l133,-133l136,136l81,-81l-136,-136l134,-134l-80,-81l-135,135l-136,-137l-81,81l137,136z"
       id="glyph77" /><glyph
       unicode="÷"
       horiz-adv-x="600"
       d="M550,313l0,-114l-500,0l0,114M221,422C221,443 229,462 244,477C259,492 278,500 299,500C320,500 339,492 354,477C369,462 377,443 377,422C377,401 369,382 354,367C339,352 320,344 299,344C278,344 259,352 244,367C229,382 221,401 221,422M221,90C221,111 229,130 244,145C259,160 278,168 299,168C320,168 339,160 354,145C369,130 377,111 377,90C377,69 369,50 354,35C339,20 320,12 299,12C278,12 259,20 244,35C229,50 221,69 221,90z"
       id="glyph79" /><glyph
       unicode="˙"
       horiz-adv-x="247"
       d="M55,678C55,697 61,713 74,726C87,739 102,745 121,745C140,745 156,739 169,726C182,713 188,697 188,678C188,659 182,644 169,631C156,618 140,612 121,612C102,612 87,618 74,631C61,644 55,659 55,678M57,677C57,696 63,713 76,726C89,739 105,745 124,745C143,745 160,739 173,726C186,713 192,696 192,677C192,658 186,642 173,629C160,616 143,610 124,610C105,610 89,616 76,629C63,642 57,658 57,677z"
       id="glyph81" /><glyph
       unicode="˚"
       horiz-adv-x="308"
       d="M55,678C55,706 65,730 84,749C103,768 126,777 154,777C182,777 206,768 225,749C244,730 253,706 253,678C253,650 244,627 225,608C206,589 182,579 154,579C126,579 103,589 84,608C65,627 55,650 55,678M90,678C90,661 96,646 109,633C122,620 137,614 154,614C171,614 186,620 199,633C212,646 218,661 218,678C218,695 212,710 199,723C186,736 171,742 154,742C137,742 122,736 109,723C96,710 90,695 90,678z"
       id="glyph83" /><glyph
       unicode="–"
       horiz-adv-x="614"
       d="M557,344l0,-114l-501,0l0,114z"
       id="glyph85" /><glyph
       unicode="—"
       horiz-adv-x="790"
       d="M733,344l0,-114l-676,0l0,114z"
       id="glyph87" /><glyph
       unicode="‘"
       horiz-adv-x="225"
       d="M156,750l18,-183l-79,-10l-55,193z"
       id="glyph89" /><glyph
       unicode="’"
       horiz-adv-x="225"
       d="M174,750l-55,-193l-79,10l18,183z"
       id="glyph91" /><glyph
       unicode="‚"
       horiz-adv-x="225"
       d="M174,117l-55,-193l-79,10l18,183z"
       id="glyph93" /><glyph
       unicode="“"
       horiz-adv-x="386"
       d="M156,750l18,-183l-79,-10l-55,193M313,750l18,-183l-79,-10l-55,193z"
       id="glyph95" /><glyph
       unicode="”"
       horiz-adv-x="386"
       d="M331,750l-55,-193l-79,10l18,183M174,750l-55,-193l-79,10l18,183z"
       id="glyph97" /><glyph
       unicode="„"
       horiz-adv-x="386"
       d="M331,117l-55,-193l-79,10l18,183M174,117l-55,-193l-79,10l18,183z"
       id="glyph99" /><glyph
       unicode="•"
       horiz-adv-x="350"
       d="M55,300C55,317 58,332 65,347C71,361 80,374 91,385C102,396 114,404 129,411C143,417 158,420 175,420C192,420 207,417 222,411C236,404 249,396 260,385C271,374 279,361 286,347C292,332 295,317 295,300C295,283 292,268 286,254C279,239 271,227 260,216C249,205 236,196 222,190C207,183 192,180 175,180C158,180 143,183 129,190C114,196 102,205 91,216C80,227 71,239 65,254C58,268 55,283 55,300z"
       id="glyph101" /><glyph
       unicode="…"
       horiz-adv-x="733"
       d="M57,52C57,67 63,81 74,94C85,107 100,113 118,113C133,113 147,107 158,94C169,81 174,67 174,52C174,37 169,24 158,13C147,2 133,-4 118,-4C100,-4 85,2 74,13C63,24 57,37 57,52M308,52C308,67 314,81 325,94C336,107 351,113 369,113C384,113 398,107 409,94C420,81 425,67 425,52C425,37 420,24 409,13C398,2 384,-4 369,-4C351,-4 336,2 325,13C314,24 308,37 308,52M559,52C559,67 565,81 576,94C587,107 602,113 620,113C635,113 649,107 660,94C671,81 676,67 676,52C676,37 671,24 660,13C649,2 635,-4 620,-4C602,-4 587,2 576,13C565,24 559,37 559,52z"
       id="glyph103" /><glyph
       unicode="−"
       horiz-adv-x="570"
       d="M514,313l0,-114l-457,0l0,114z"
       id="glyph105" /><glyph
       unicode="+"
       horiz-adv-x="600"
       d="M243,501l114,0l0,-189l192,0l0,-114l-192,0l0,-190l-114,0l0,190l-193,0l0,114l193,0z"
       id="glyph107" /><glyph
       unicode="/"
       horiz-adv-x="359"
       d="M41,1l216,756l60,-14l-215,-750z"
       id="glyph109" /><glyph
       unicode="\"
       horiz-adv-x="360"
       d="M259,-9l-218,752l59,18l218,-753z"
       id="glyph111" /><glyph
       unicode="^"
       horiz-adv-x="560"
       d="M143,353l-121,0l218,397l80,0l218,-397l-119,0l-139,253z"
       id="glyph113" /><glyph
       unicode="˝"
       horiz-adv-x="599"
       d="M239,782l48,-106l-172,-70l-62,97M500,782l48,-106l-172,-70l-62,97z"
       id="glyph115" /><glyph
       unicode="«"
       horiz-adv-x="521"
       d="M245,274l132,211l96,-69l-95,-142l92,-140l-88,-73M47,274l132,211l96,-69l-95,-142l92,-140l-88,-73z"
       id="glyph117" /><glyph
       unicode="»"
       horiz-adv-x="521"
       d="M275,272l-132,-211l-96,69l95,142l-92,140l88,73M473,272l-132,-211l-96,69l95,142l-92,140l88,73z"
       id="glyph119" /><glyph
       unicode="¯"
       horiz-adv-x="428"
       d="M371,730l0,-114l-315,0l0,114z"
       id="glyph121" /><glyph
       unicode="±"
       horiz-adv-x="638"
       d="M262,514l114,0l0,-123l208,0l0,-114l-208,0l0,-123l-114,0l0,123l-208,0l0,114l208,0M584,120l0,-114l-530,0l0,114z"
       id="glyph123" /><glyph
       unicode="‹"
       horiz-adv-x="320"
       d="M184,485l88,-73l-92,-140l95,-142l-96,-69l-132,211z"
       id="glyph125" /><glyph
       unicode="›"
       horiz-adv-x="320"
       d="M275,272l-132,-211l-96,69l95,142l-92,140l88,73z"
       id="glyph127" /><glyph
       unicode="¨"
       horiz-adv-x="453"
       d="M262,683C262,702 269,718 282,731C295,744 310,750 329,750C348,750 365,744 378,731C391,718 397,702 397,683C397,664 391,649 378,636C365,623 348,616 329,616C310,616 295,623 282,636C269,649 262,664 262,683M56,683C56,702 63,718 76,731C89,744 105,750 124,750C143,750 159,744 172,731C185,718 191,702 191,683C191,664 185,649 172,636C159,623 143,616 124,616C105,616 89,623 76,636C63,649 56,664 56,683z"
       id="glyph129" /><glyph
       unicode="{"
       horiz-adv-x="387"
       d="M56,389C91,392 116,404 131,425C146,446 154,478 154,522l0,127C154,690 157,722 163,747C169,772 184,791 207,806C222,815 239,821 260,824C281,827 305,828 333,828l1,-86C318,741 305,738 296,733C286,728 278,722 273,713C267,704 263,693 262,680C260,667 259,651 259,632l0,-128C259,481 258,460 255,443C252,426 247,411 240,398C232,385 221,374 208,365C194,356 176,348 154,342C151,342 150,341 150,340C150,339 151,338 154,338C176,332 194,325 208,316C221,307 232,296 240,283C247,270 252,254 255,237C258,219 259,199 259,176l0,-128C259,29 260,13 262,0C263,-13 267,-24 273,-33C278,-42 286,-48 296,-53C305,-58 318,-61 334,-62l-1,-86C305,-148 281,-146 260,-143C239,-140 222,-135 207,-126C195,-119 186,-110 179,-100C172,-91 166,-80 163,-67C159,-54 157,-40 156,-24C155,-8 154,10 154,31l0,127C154,202 146,235 131,256C116,277 91,289 56,292z"
       id="glyph131" /><glyph
       unicode="}"
       horiz-adv-x="392"
       d="M334,292C299,289 274,277 259,256C244,235 236,202 236,158l0,-127C236,10 236,-8 235,-24C234,-40 231,-54 228,-67C224,-80 219,-91 212,-100C205,-110 195,-119 183,-126C168,-135 151,-140 130,-143C109,-146 85,-148 57,-148l-1,86C72,-61 85,-58 95,-53C104,-48 112,-42 118,-33C123,-24 127,-13 129,0C130,13 131,29 131,48l0,128C131,199 132,219 135,237C138,254 143,270 151,283C158,296 169,307 183,316C196,325 214,332 236,338C239,338 240,339 240,340C240,341 239,342 236,342C214,348 196,356 183,365C169,374 158,385 151,398C143,411 138,426 135,443C132,460 131,481 131,504l0,128C131,651 130,667 129,680C127,693 123,704 118,713C112,722 104,728 95,733C85,738 72,741 56,742l1,86C85,828 109,827 130,824C151,821 168,815 183,806C206,791 221,772 227,747C233,722 236,690 236,649l0,-127C236,478 244,446 259,425C274,404 299,392 334,389z"
       id="glyph133" /><glyph
       unicode="("
       horiz-adv-x="343"
       d="M55,536C55,591 66,640 87,683C108,726 138,762 176,792l92,-100C253,677 240,662 231,649C222,635 215,621 210,606C205,591 201,576 200,559C199,542 198,523 198,501l0,-297C198,182 199,163 200,146C201,129 205,114 210,99C215,84 222,70 231,57C240,43 253,28 268,13l-92,-100C138,-57 108,-21 87,22C66,65 55,114 55,169z"
       id="glyph135" /><glyph
       unicode=")"
       horiz-adv-x="343"
       d="M288,169C288,114 277,65 256,22C235,-21 205,-57 167,-87l-92,100C90,28 103,43 112,57C121,70 129,84 134,99C139,114 142,129 143,146C144,163 145,182 145,204l0,297C145,523 144,542 143,559C142,576 139,591 134,606C129,621 121,635 112,649C103,662 90,677 75,692l92,100C205,762 235,726 256,683C277,640 288,591 288,536z"
       id="glyph137" /><glyph
       unicode="‰"
       horiz-adv-x="1299"
       d="M311,12C304,1 295,-4 282,-4C273,-4 265,-1 258,6C251,13 248,21 248,30C248,36 250,42 253,49l348,683C604,739 608,744 614,749C620,753 627,755 634,755C643,755 651,752 658,745C665,738 668,730 668,721C668,715 666,709 662,702C604,588 555,492 516,413C476,334 443,270 417,219C391,168 371,128 357,101C343,73 333,53 326,40C319,27 315,19 314,17C312,14 311,13 311,12M601,180C601,157 609,138 625,123C640,107 659,99 682,99C705,99 724,107 740,123C755,138 763,157 763,180C763,203 755,222 740,238C724,253 705,261 682,261C659,261 640,253 625,238C609,222 601,203 601,180M502,180C502,205 507,228 516,250C525,272 538,291 555,308C571,324 590,337 612,346C634,355 657,360 682,360C707,360 730,355 752,346C774,337 793,324 810,308C826,291 839,272 848,250C857,228 862,205 862,180C862,155 857,132 848,110C839,88 826,69 810,53C793,36 774,23 752,14C730,5 707,0 682,0C657,0 634,5 612,14C590,23 571,36 555,53C538,69 525,88 516,110C507,132 502,155 502,180M154,570C154,547 162,528 178,513C193,497 212,489 235,489C258,489 277,497 293,513C308,528 316,547 316,570C316,593 308,612 293,628C277,643 258,651 235,651C212,651 193,643 178,628C162,612 154,593 154,570M55,570C55,595 60,618 69,640C78,662 91,681 108,698C124,714 143,727 165,736C187,745 210,750 235,750C260,750 283,745 305,736C327,727 346,714 363,698C379,681 392,662 401,640C410,618 415,595 415,570C415,545 410,522 401,500C392,478 379,459 363,443C346,426 327,413 305,404C283,395 260,390 235,390C210,390 187,395 165,404C143,413 124,426 108,443C91,459 78,478 69,500C60,522 55,545 55,570M986,180C986,157 994,138 1010,123C1025,107 1044,99 1067,99C1090,99 1109,107 1125,123C1140,138 1148,157 1148,180C1148,203 1140,222 1125,238C1109,253 1090,261 1067,261C1044,261 1025,253 1010,238C994,222 986,203 986,180M887,180C887,205 892,228 901,250C910,272 923,291 940,308C956,324 975,337 997,346C1019,355 1042,360 1067,360C1092,360 1115,355 1137,346C1159,337 1178,324 1195,308C1211,291 1224,272 1233,250C1242,228 1247,205 1247,180C1247,155 1242,132 1233,110C1224,88 1211,69 1195,53C1178,36 1159,23 1137,14C1115,5 1092,0 1067,0C1042,0 1019,5 997,14C975,23 956,36 940,53C923,69 910,88 901,110C892,132 887,155 887,180z"
       id="glyph139" /><glyph
       unicode="%"
       horiz-adv-x="915"
       d="M240,25l372,729l61,-30C615,610 566,513 525,432C484,351 449,283 422,229C394,174 372,131 356,100C339,68 327,44 319,28C310,11 305,1 302,-4C299,-9 298,-11 298,-12M600,180C600,157 608,138 624,123C639,107 658,99 681,99C704,99 723,107 739,123C754,138 762,157 762,180C762,203 754,222 739,238C723,253 704,261 681,261C658,261 639,253 624,238C608,222 600,203 600,180M501,180C501,205 506,228 515,250C524,272 537,291 554,308C570,324 589,337 611,346C633,355 656,360 681,360C706,360 729,355 751,346C773,337 792,324 809,308C825,291 838,272 847,250C856,228 861,205 861,180C861,155 856,132 847,110C838,88 825,69 809,53C792,36 773,23 751,14C729,5 706,0 681,0C656,0 633,5 611,14C589,23 570,36 554,53C537,69 524,88 515,110C506,132 501,155 501,180M153,570C153,547 161,528 177,513C192,497 211,489 234,489C257,489 276,497 292,513C307,528 315,547 315,570C315,593 307,612 292,628C276,643 257,651 234,651C211,651 192,643 177,628C161,612 153,593 153,570M54,570C54,595 59,618 68,640C77,662 90,681 107,698C123,714 142,727 164,736C186,745 209,750 234,750C259,750 282,745 304,736C326,727 345,714 362,698C378,681 391,662 400,640C409,618 414,595 414,570C414,545 409,522 400,500C391,478 378,459 362,443C345,426 326,413 304,404C282,395 259,390 234,390C209,390 186,395 164,404C142,413 123,426 107,443C90,459 77,478 68,500C59,522 54,545 54,570z"
       id="glyph141" /><glyph
       unicode="¶"
       horiz-adv-x="654"
       d="M275,363C202,363 147,378 109,408C71,438 52,480 52,534C52,570 58,600 71,623C84,646 101,664 123,677C145,690 171,700 201,705C231,710 263,712 298,712l299,0l0,-924l-114,0l0,809l-94,0l0,-809l-114,0z"
       id="glyph143" /><glyph
       unicode="µ"
       horiz-adv-x="582"
       d="M57,538l143,0l0,-306C200,202 210,179 229,163C248,147 269,139 293,139C317,139 339,147 358,163C377,179 386,202 386,232l0,306l143,0l0,-539l-145,64C379,50 372,39 365,30C358,21 350,15 342,10C333,5 325,1 316,-1C307,-3 299,-4 292,-4C277,-4 260,-1 243,6C225,13 211,23 200,38l0,-256l-143,0z"
       id="glyph145" /><glyph
       unicode="©"
       horiz-adv-x="835"
       d="M55,360C55,410 65,457 84,501C103,545 130,584 163,617C196,650 234,676 278,695C322,714 369,723 418,723C469,723 516,714 560,695C604,676 642,650 675,617C708,584 733,545 752,501C771,457 780,410 780,360C780,311 771,264 752,220C733,176 708,138 675,105C642,72 604,46 560,27C516,8 469,-2 418,-2C369,-2 322,8 278,27C234,46 196,72 163,105C130,138 103,176 84,220C65,264 55,311 55,360M110,360C110,317 118,277 134,240C150,203 172,170 200,143C228,115 261,93 298,77C335,61 375,53 418,53C461,53 501,61 539,77C576,93 609,115 638,143C666,170 688,203 705,240C722,277 730,317 730,360C730,403 722,443 705,480C688,517 666,550 638,578C609,606 576,628 539,644C501,660 461,668 418,668C375,668 335,660 298,644C261,628 228,606 200,578C172,550 150,517 134,480C118,443 110,403 110,360M423,470C408,470 393,467 380,462C367,456 355,448 345,438C335,428 327,417 322,404C316,391 313,377 313,362C313,347 316,332 322,319C327,306 335,294 345,284C355,274 367,266 380,261C393,255 408,252 423,252C436,252 449,254 462,257C475,260 486,265 495,273l49,-60C527,199 509,189 488,183C467,177 445,174 423,174C397,174 373,179 350,189C327,198 307,212 290,229C273,246 259,265 250,288C240,310 235,334 235,360C235,386 240,411 250,434C259,457 273,477 290,494C307,511 327,524 350,534C373,543 397,548 423,548C445,548 467,545 488,539C509,533 527,523 544,509l-49,-60C486,457 475,463 462,466C449,469 436,470 423,470z"
       id="glyph147" /><glyph
       unicode="®"
       horiz-adv-x="875"
       d="M55,375C55,427 65,476 86,523C106,570 133,610 168,645C203,680 243,707 290,728C336,748 385,758 437,758C491,758 541,748 588,728C634,707 674,680 709,645C744,610 771,570 791,523C810,476 820,427 820,375C820,323 810,274 791,227C771,180 744,140 709,105C674,70 634,43 588,23C541,2 491,-8 437,-8C385,-8 336,2 290,23C243,43 203,70 168,105C133,140 106,180 86,227C65,274 55,323 55,375M113,375C113,330 122,287 139,248C156,209 179,174 208,145C237,116 272,93 311,76C350,59 392,50 437,50C482,50 524,59 565,76C605,93 640,116 670,145C700,174 724,209 742,248C759,287 768,330 768,375C768,420 759,462 742,502C724,541 700,576 670,605C640,634 605,658 565,675C524,692 482,700 437,700C392,700 350,692 311,675C272,658 237,634 208,605C179,576 156,541 139,502C122,462 113,420 113,375M396,400C396,397 397,396 400,396l50,0C469,396 483,403 492,417C501,431 506,447 506,464C506,481 501,496 492,509C483,522 469,528 450,528l-50,0C397,528 396,527 396,525M504,151C482,188 464,219 451,242C437,265 426,282 419,295C411,307 406,315 403,319C400,323 399,325 399,325C397,325 396,324 396,323l0,-172l-77,0l0,446l134,0C474,597 492,594 509,587C525,580 539,571 550,559C561,547 569,533 575,517C581,500 584,483 584,464C584,427 575,397 557,374C539,351 515,338 485,335C484,335 484,334 484,332l109,-181z"
       id="glyph149" /><glyph
       unicode="†"
       horiz-adv-x="672"
       d="M270,408l-222,0l0,120l222,0l0,221l132,0l0,-221l221,0l0,-120l-221,0l0,-595l-132,0z"
       id="glyph151" /><glyph
       unicode="‡"
       horiz-adv-x="674"
       d="M271,215l-222,0l0,120l222,0l0,73l-222,0l0,120l222,0l0,222l132,0l0,-222l221,0l0,-120l-221,0l0,-73l221,0l0,-120l-221,0l0,-399l-132,0z"
       id="glyph153" /><glyph
       unicode="´"
       horiz-adv-x="339"
       d="M239,766l48,-106l-172,-70l-62,97z"
       id="glyph155" /><glyph
       unicode="`"
       horiz-adv-x="339"
       d="M287,687l-62,-97l-172,70l48,106z"
       id="glyph157" /><glyph
       unicode="˘"
       horiz-adv-x="420"
       d="M118,758l3,-3C125,751 130,746 136,741C141,736 148,731 155,726C162,721 171,716 180,713C189,710 199,708 210,708C221,708 230,710 239,714C247,717 254,722 261,727C267,732 273,738 278,744C283,750 288,755 293,759l90,-76C377,671 368,660 357,649C346,638 333,629 318,621C303,613 286,607 268,602C249,597 230,594 210,594C189,594 168,597 149,602C130,607 112,613 96,622C80,630 66,640 55,651C43,662 34,673 28,686z"
       id="glyph159" /><glyph
       unicode="ˇ"
       horiz-adv-x="397"
       d="M48,661l63,97l87,-33l89,39l64,-97l-153,-64z"
       id="glyph161" /><glyph
       unicode="¸"
       horiz-adv-x="308"
       d="M196,0l-39,-51C160,-51 164,-50 168,-49C172,-48 176,-48 179,-48C200,-48 218,-55 233,-68C247,-81 254,-100 254,-124C254,-140 251,-154 244,-166C237,-178 228,-188 217,-195C206,-203 194,-209 181,-212C168,-216 155,-218 143,-218C139,-218 133,-218 125,-217C117,-216 109,-215 101,-213C92,-212 84,-210 76,-208C68,-206 62,-204 57,-201l0,63C64,-141 72,-143 79,-145C86,-147 93,-149 100,-150C107,-151 113,-152 120,-152l9,0C137,-152 144,-150 150,-146C155,-143 158,-135 158,-124C158,-111 155,-103 148,-100C141,-97 133,-96 124,-96l-57,0l69,96z"
       id="glyph163" /><glyph
       unicode="˜"
       horiz-adv-x="444"
       d="M56,725C59,726 64,729 70,732C76,735 83,739 92,742C100,745 109,748 119,751C129,753 140,754 151,754C162,754 174,753 186,750C197,747 208,745 219,742C230,739 240,736 250,733C259,730 268,729 275,729C287,729 300,731 313,735C326,739 339,744 350,749C363,755 375,762 388,770l0,-109C384,658 379,655 373,650C367,645 360,640 352,635C344,630 335,625 325,621C314,617 303,615 290,615C280,615 269,616 258,619C246,622 234,625 222,628C210,631 198,634 187,637C175,640 164,641 154,641C135,641 119,639 106,635C93,631 83,627 76,622C67,617 60,611 55,604z"
       id="glyph165" /><glyph
       unicode="Ø"
       horiz-adv-x="876"
       d="M273,-47l21,67C259,34 226,53 197,77C168,100 143,127 122,158C101,189 84,223 73,260C61,297 55,335 55,375C55,428 65,477 85,524C105,571 132,611 167,646C202,681 242,708 289,728C335,748 385,758 438,758C461,758 483,756 505,752l15,48l69,0l-18,-66C608,721 641,702 672,679C703,655 729,627 751,596C773,565 790,530 803,493C815,456 821,416 821,375C821,322 811,272 791,226C771,179 744,139 709,104C674,69 634,42 587,22C540,2 491,-8 438,-8C412,-8 386,-5 359,0l-15,-47M438,135C471,135 503,141 532,154C561,167 586,184 608,206C629,227 646,253 659,282C672,311 678,342 678,375C678,425 664,470 637,509C610,548 574,577 531,596l-132,-458C411,136 424,135 438,135M198,375C198,351 201,328 208,307C215,285 224,265 236,246C248,227 262,211 279,196C296,181 314,169 334,159l131,454C460,614 456,614 452,615C447,615 443,615 438,615C405,615 374,609 345,596C316,583 290,566 269,545C247,523 230,498 217,469C204,440 198,408 198,375z"
       id="glyph167" /><glyph
       unicode="ˆ"
       horiz-adv-x="398"
       d="M198,764l153,-64l-64,-97l-89,39l-87,-33l-63,97z"
       id="glyph169" /><glyph
       unicode="~"
       horiz-adv-x="630"
       d="M55,294C58,295 65,298 75,302C84,305 96,309 109,313C122,317 137,321 154,324C170,327 187,328 204,328C220,328 238,326 259,322C280,318 300,314 320,309C340,304 358,300 375,296C391,292 403,290 410,290C429,290 448,292 467,296C486,300 504,305 520,310C539,316 557,323 575,330l0,-109C572,218 565,214 555,209C544,204 531,199 516,194C501,189 484,185 465,182C446,178 427,176 406,176C392,176 378,178 364,182C350,186 335,191 319,196C303,201 286,205 268,209C249,213 229,215 207,215C188,215 169,213 151,209C133,204 117,199 102,194C85,187 69,180 54,173z"
       id="glyph171" /><glyph
       unicode="["
       horiz-adv-x="355"
       d="M57,816l244,0l0,-120l-96,0C202,696 200,694 200,690l0,-711C200,-25 202,-27 205,-27l96,0l0,-120l-242,0z"
       id="glyph173" /><glyph
       unicode="]"
       horiz-adv-x="355"
       d="M299,-147l-242,0l0,120l96,0C156,-27 158,-25 158,-21l0,711C158,694 156,696 153,696l-96,0l0,120l244,0z"
       id="glyph175" /><glyph
       unicode="M"
       horiz-adv-x="874"
       d="M627,750l191,0l0,-750l-141,0l0,493C677,494 677,493 676,492C675,491 673,486 670,477C667,468 661,454 654,434C646,414 635,386 621,349C607,312 589,266 568,209C547,152 521,83 490,0l-109,0l-177,497l0,-497l-147,0l0,750l188,0l191,-524z"
       id="glyph177" /><glyph
       unicode="X"
       horiz-adv-x="658"
       d="M647,0l-170,0l-143,233C333,235 331,236 329,236C326,236 325,235 324,233l-145,-233l-167,0l229,369C242,372 243,374 243,375C243,376 243,377 243,378C242,379 242,380 241,381l-228,370l168,0l144,-235C326,514 327,513 329,513C330,513 332,514 333,516l144,234l170,0l-230,-369C416,379 415,377 415,375C415,372 416,370 417,369z"
       id="glyph179" /><glyph
       unicode="W"
       horiz-adv-x="934"
       d="M576,0C552,93 533,167 519,224C504,280 493,323 485,353C477,383 472,403 469,412C466,421 465,425 465,424l-109,-424l-112,0l-202,750l149,0C215,656 234,581 249,525C263,469 274,426 281,397C288,367 293,348 295,339C297,330 298,325 299,325C300,325 301,326 302,327l111,423l112,0C549,656 568,581 583,525C597,469 608,426 615,397C622,367 627,348 629,339C631,330 632,325 633,325C634,325 635,326 636,327l108,423l149,0l-203,-750z"
       id="glyph181" /><glyph
       unicode="P"
       horiz-adv-x="556"
       d="M200,444C200,440 202,438 206,438l82,0C303,438 315,441 325,447C334,453 342,461 348,470C353,479 357,488 360,498C362,508 363,517 363,525C363,533 362,542 360,551C357,560 353,569 348,578C342,586 334,593 325,599C315,604 303,607 288,607l-82,0C202,607 200,605 200,601M58,750l230,0C320,750 349,744 376,733C403,721 426,705 445,685C464,665 479,641 490,614C501,587 506,557 506,525C506,493 501,463 490,436C479,408 464,384 445,363C426,342 403,325 376,313C349,301 320,295 288,295l-82,0C202,295 200,293 200,289l0,-289l-143,0z"
       id="glyph183" /><glyph
       unicode="R"
       horiz-adv-x="560"
       d="M200,444C200,440 202,438 206,438l82,0C303,438 315,441 325,447C334,453 342,461 348,470C353,479 357,488 360,498C362,508 363,517 363,525C363,533 362,542 360,551C357,560 353,569 348,578C342,586 334,593 325,599C315,604 303,607 288,607l-82,0C202,607 200,605 200,601M233,304C231,308 228,310 224,310l-18,0C202,310 200,308 200,304l0,-304l-143,0l0,750l231,0C320,750 349,744 376,733C403,721 426,705 445,685C464,665 479,641 490,614C501,587 506,557 506,525C506,474 496,433 476,401C455,368 425,342 386,322C385,322 384,320 384,317l149,-317l-160,0z"
       id="glyph185" /><glyph
       unicode="K"
       horiz-adv-x="583"
       d="M57,750l143,0C200,685 200,632 200,590C200,548 200,515 200,491C200,466 200,449 201,440C201,430 201,425 201,425C202,425 203,426 204,427l201,323l163,0l-226,-369C341,379 340,377 340,375C340,372 341,370 342,369l230,-369l-168,0C363,67 329,121 302,164C275,207 255,240 240,265C225,289 214,305 209,314C203,323 200,327 200,326l0,-326l-143,0z"
       id="glyph187" /><glyph
       unicode="U"
       horiz-adv-x="607"
       d="M56,749l143,0l0,-516C199,218 202,205 209,194C216,182 224,172 235,164C245,155 256,149 269,145C282,140 294,138 306,138C319,138 332,140 345,145C357,150 368,156 377,165C386,173 394,183 400,194C405,205 408,216 408,229l0,520l143,0l0,-536C551,181 544,152 531,125C517,98 499,75 476,56C453,37 427,22 398,11C369,0 338,-5 306,-5C274,-5 243,0 213,11C183,22 156,37 133,56C110,75 91,98 77,125C63,152 56,181 56,213z"
       id="glyph189" /><glyph
       unicode="S"
       horiz-adv-x="539"
       d="M169,199C179,182 191,167 206,154C220,141 240,134 267,134C288,134 306,142 320,157C334,172 341,190 341,210C341,228 339,243 334,255C329,266 322,276 313,284C304,291 293,297 280,302C267,307 252,312 237,317C211,325 187,336 165,349C143,362 124,378 108,396C91,414 79,435 70,458C61,481 56,506 56,533C56,567 61,598 72,625C82,652 97,676 116,695C135,714 158,729 185,740C212,751 242,756 275,756C293,756 312,753 331,748C350,743 369,735 386,725C403,714 418,701 431,686C444,671 454,653 461,632l-129,-62C324,587 314,599 301,604C288,609 276,612 266,612C247,612 232,605 219,590C206,575 199,558 199,539C199,524 203,512 210,502C217,492 227,483 238,476C249,469 260,463 272,458C284,453 295,448 305,444C336,431 363,417 386,402C409,387 427,371 442,353C456,335 467,314 474,291C481,268 484,241 484,210C484,180 479,152 468,125C457,98 442,75 423,56C404,36 381,20 356,9C330,-2 302,-8 273,-8l-9,0C221,-8 187,0 160,17C133,33 111,51 96,71C78,94 64,120 55,150z"
       id="glyph191" /><glyph
       unicode="B"
       horiz-adv-x="571"
       d="M57,0l0,750l215,0C276,750 279,750 281,749C309,747 335,740 358,729C381,718 402,703 419,685C436,667 449,646 459,623C468,599 473,574 473,547C473,522 469,498 462,476C454,453 443,433 430,415C457,394 478,367 494,336C509,305 517,270 517,233C517,201 511,171 499,143C487,115 471,91 451,70C430,49 406,32 379,20C351,7 321,1 289,0M284,143C297,143 309,146 320,151C331,156 340,163 348,172C356,181 362,191 367,203C372,214 374,226 374,239C374,252 372,264 367,276C362,287 356,297 348,306C340,315 331,322 320,327C309,332 297,334 284,334l-78,0C202,334 200,332 200,328l0,-179C200,145 202,143 206,143M336,534C336,553 329,570 315,585C301,600 283,607 262,607l-56,0C202,607 200,605 200,601l0,-138C200,459 202,457 206,457l62,0C288,458 304,467 317,482C330,497 336,515 336,534z"
       id="glyph193" /><glyph
       unicode="$"
       horiz-adv-x="535"
       d="M185,172l5,-8C198,151 209,142 224,139C239,136 252,134 265,134C286,134 304,142 318,157C332,172 339,190 339,210C339,228 337,243 332,255C327,266 320,276 311,284C302,291 291,297 278,302C265,307 250,312 235,317C209,325 185,336 163,349C141,362 122,378 106,396C89,414 77,435 68,458C59,481 54,506 54,533C54,592 69,640 98,678C127,716 167,740 219,750l0,94l114,0l0,-97C361,738 387,725 410,706C433,687 450,662 459,632l-129,-62l-6,13C319,594 310,601 298,606C285,610 274,612 264,612C245,612 230,605 217,590C204,575 197,558 197,539C197,524 201,512 208,502C215,492 225,483 236,476C247,469 258,463 270,458C282,453 293,448 303,444C334,431 361,417 384,402C407,387 425,371 440,353C454,335 465,314 472,291C479,268 482,241 482,210C482,185 478,162 471,140C464,117 453,97 440,79C427,60 411,44 393,31C374,18 354,8 333,1l0,-93l-114,0l0,89C198,0 177,6 157,14C137,22 119,32 104,45C89,58 76,73 67,91C58,108 53,128 53,150z"
       id="glyph195" /><glyph
       unicode="@"
       horiz-adv-x="910"
       d="M538,402C540,412 541,422 541,431C541,456 534,475 519,488C504,500 486,506 467,506C449,506 432,501 416,491C400,481 386,467 374,450C362,433 353,413 346,390C339,367 336,342 336,317C336,288 342,265 354,249C366,233 384,225 409,225C433,225 456,235 477,254C498,273 512,299 520,331M520,244C503,220 485,202 465,190C444,177 419,171 390,171C346,171 312,184 289,210C266,235 254,271 254,317C254,352 259,384 270,414C281,443 295,469 314,491C333,512 354,529 379,541C403,553 429,559 457,559C484,559 507,554 524,544C541,534 555,518 564,496l24,49l68,0l-63,-252C591,286 590,280 589,277C588,274 588,271 588,268C588,259 592,251 599,244C606,237 615,234 627,234C642,234 657,238 673,246C689,253 704,266 719,283C741,305 757,330 767,359C777,388 782,419 782,453C782,488 775,520 762,549C749,578 729,602 704,623C679,643 648,659 612,670C576,681 536,687 491,687C442,687 396,678 352,661C308,644 270,620 237,589C204,558 177,522 158,480C138,438 128,392 128,343C128,302 137,265 154,231C171,196 194,167 223,142C252,117 287,97 328,83C368,69 411,62 457,62C506,62 553,67 598,77C643,87 685,106 724,133l29,-39C666,26 569,-8 462,-8C410,-8 360,0 311,15C262,30 218,53 181,84C143,114 113,151 90,196C67,241 55,292 55,351C55,410 67,464 90,514C113,563 145,606 185,643C225,679 272,707 326,728C379,748 436,758 496,758C540,758 584,752 627,739C670,726 708,706 742,681C775,656 803,624 824,586C845,548 855,504 855,453C855,406 846,363 827,324C808,284 782,249 748,220C729,205 707,194 684,185C661,176 637,171 613,171C590,171 569,176 550,187C531,197 521,216 520,244z"
       id="glyph197" /><glyph
       unicode="&amp;"
       horiz-adv-x="723"
       d="M536,258C534,255 533,252 533,249C533,246 534,243 536,241l155,-143l-87,-98C577,25 554,45 537,62C520,78 506,91 495,100C483,111 474,120 467,125C458,105 447,87 433,70C419,53 403,39 386,28C368,17 349,8 329,2C308,-5 287,-8 266,-8C234,-8 204,-2 176,10C148,21 124,37 103,58C82,78 65,102 53,129C41,156 35,186 35,217C35,261 46,301 68,337C90,372 121,403 162,428C112,466 87,517 87,580C87,604 92,627 102,649C112,670 126,689 143,706C160,722 179,735 202,744C224,753 247,758 272,758C296,758 319,753 341,744C362,735 381,722 397,706C413,689 426,670 435,649C444,627 449,604 449,580C449,544 440,513 422,486C403,459 380,436 351,417l80,-78l83,161l117,-58M165,221C165,193 175,170 194,151C213,132 236,122 264,122C278,122 290,125 301,132C312,139 321,147 330,157C338,166 345,176 351,186C356,196 361,204 364,211l3,6l-50,50l-75,67C233,329 224,322 215,315C206,307 197,298 190,289C183,280 177,269 172,258C167,246 165,234 165,221M217,575C217,566 220,557 225,548C230,539 235,531 242,524C248,517 254,511 259,507C264,503 267,501 267,501C270,501 276,505 285,513C294,520 302,529 309,538C316,547 320,560 320,575C320,589 315,601 305,611C295,621 283,626 269,626C254,626 242,621 232,611C222,601 217,589 217,575z"
       id="glyph199" /><glyph
       unicode="£"
       horiz-adv-x="648"
       d="M99,144l60,0C171,144 182,148 191,157C200,166 205,179 205,198l0,5C205,209 203,217 199,228C195,238 190,249 184,261C178,273 171,285 164,298C156,310 148,321 139,331l-83,0l0,120l49,0C102,462 100,474 98,485C95,496 94,508 94,519C94,553 100,585 112,614C124,643 141,669 162,690C183,711 209,728 238,740C267,752 299,758 333,758C372,758 407,752 438,740C468,727 494,710 517,687l-107,-96C401,600 390,606 377,609C363,612 349,614 335,614C321,614 308,612 296,607C284,602 274,596 266,588C257,580 251,571 246,560C241,549 238,538 238,527C238,516 240,505 243,494C246,483 251,468 260,451l204,0l0,-120l-158,0C318,311 328,292 337,273C345,254 349,233 349,210C349,201 349,194 348,189C347,183 347,178 346,173C345,168 343,164 341,160C338,155 336,150 333,145l42,0C405,145 427,151 441,164C454,177 462,196 463,221l0,6l131,0C594,194 588,164 576,137C563,109 546,85 524,65C502,44 476,28 446,17C416,6 384,0 349,0l-250,0z"
       id="glyph201" /><glyph
       unicode="1"
       horiz-adv-x="600"
       d="M151,751l262,0l0,-751l-143,0l0,610C270,614 268,616 264,616l-113,0z"
       id="glyph203" /><glyph
       unicode="0"
       horiz-adv-x="600"
       d="M555,247C555,213 548,181 535,150C522,119 504,92 481,69C458,45 431,26 400,13C369,-1 335,-8 300,-8C265,-8 232,-1 201,13C170,26 143,45 120,69C97,92 78,119 65,150C52,181 45,213 45,247l0,256C45,537 52,569 65,600C78,631 97,658 120,682C143,705 170,724 201,738C232,751 265,758 300,758C335,758 369,751 400,738C431,724 458,705 481,682C504,658 522,631 535,600C548,569 555,537 555,503M187,249C187,234 190,220 196,207C202,193 210,181 221,171C231,160 243,152 257,146C270,139 285,136 300,136C315,136 330,139 344,146C357,152 369,160 379,171C389,181 397,193 403,207C409,220 412,234 412,249l0,252C412,516 409,530 403,544C397,557 389,569 379,580C369,590 357,598 344,605C330,611 315,614 300,614C285,614 270,611 257,605C243,598 231,590 221,580C210,569 202,557 196,544C190,530 187,516 187,501z"
       id="glyph205" /><glyph
       unicode="2"
       horiz-adv-x="600"
       d="M77,172C80,175 88,183 103,197C118,210 135,226 156,245C176,263 198,283 221,304C244,325 266,345 287,364C308,383 326,399 341,413C356,426 366,435 370,439C381,449 389,461 396,475C403,489 406,503 406,516C406,544 397,568 378,587C359,606 335,615 307,615C285,615 266,609 249,596C232,583 219,566 212,546l-135,47C85,617 97,639 112,660C127,680 144,697 164,712C184,726 206,737 231,746C255,754 280,758 307,758C340,758 372,752 401,739C430,726 456,709 478,687C500,665 517,639 530,610C543,581 549,549 549,516C549,480 542,448 529,420C516,392 496,365 471,340C467,336 461,330 453,323C444,316 434,307 423,298C412,288 400,277 387,266C374,255 360,244 347,233C316,207 282,179 245,148C244,147 243,146 243,145C243,144 244,143 246,143l307,0l0,-143l-477,0z"
       id="glyph207" /><glyph
       unicode="™"
       horiz-adv-x="866"
       d="M155,659l0,4l0,1C155,665 154,666 152,666l-98,0l0,86l288,0l0,-86l-98,0l-3,-3l0,-4l0,-360l-86,0M692,751l117,0l0,-451l-85,0l0,297C724,600 723,601 720,601C717,601 716,600 715,597C714,596 713,591 710,582C707,573 703,561 698,547C693,533 687,517 681,500C675,482 669,464 662,446C647,403 630,355 611,300l-64,0l-50,146C491,464 485,482 479,500C473,517 468,533 463,547C458,561 454,573 451,582C448,591 446,596 446,597C445,597 445,597 445,598C444,598 444,598 443,598C442,598 442,598 442,598C442,597 442,597 441,597l-1,0l0,-296l-89,0l0,450l115,0l110,-311C577,438 578,437 579,437C581,437 582,438 582,440z"
       id="glyph209" /><glyph
       unicode="3"
       horiz-adv-x="600"
       d="M121,666C138,694 160,716 188,733C216,750 247,758 282,758C307,758 331,753 354,744C377,734 397,721 414,704C431,687 444,667 454,644C463,621 468,597 468,571C468,548 464,527 457,507C449,487 438,469 425,453C422,450 421,449 421,448C421,446 422,445 425,444C459,422 487,393 508,357C529,321 539,281 539,237C539,203 533,171 520,142C507,112 489,86 467,64C445,42 419,25 390,12C360,-1 328,-8 294,-8C253,-8 216,2 183,21C150,40 122,64 99,95C89,109 80,125 73,144C65,162 61,181 61,201l133,18C199,195 211,175 230,159C248,143 270,135 295,135C309,135 322,138 335,144C347,150 358,158 367,168C376,178 383,190 388,204C393,217 396,232 396,247C396,276 387,301 369,322C350,343 328,357 303,364l-66,18l0,105l61,17C311,507 320,513 327,522C334,531 337,545 337,564C337,579 332,592 322,603C311,614 298,619 283,619C269,619 256,616 243,609C230,602 219,595 209,587C197,578 186,567 176,556z"
       id="glyph211" /><glyph
       unicode="4"
       horiz-adv-x="600"
       d="M46,262C101,351 151,431 196,502C215,532 233,562 252,591C270,620 286,647 301,670C315,693 327,711 336,726C345,740 350,748 351,749l146,0l0,-488l70,0l0,-145l-70,0l0,-116l-143,0l0,115C354,119 352,121 348,121l-302,0M204,261C203,260 203,259 203,258C203,255 204,254 206,254l142,0C352,254 354,256 354,260C354,323 354,372 354,407C354,441 354,466 354,482C354,498 354,507 354,510C353,513 353,514 353,514C352,514 351,513 350,512z"
       id="glyph213" /><glyph
       unicode="5"
       horiz-adv-x="600"
       d="M495,750l0,-141l-255,0C237,609 234,607 233,603l-18,-91C215,511 215,510 216,509l4,0C242,515 266,518 291,518C327,518 361,511 393,498C425,484 453,465 477,441C501,417 520,389 534,357C547,325 554,291 554,255C554,219 547,185 534,153C520,121 501,93 477,69C453,45 425,26 393,13C361,-1 327,-8 291,-8C239,-8 192,5 151,32C109,58 77,93 56,137l128,59C193,177 208,162 227,151C246,140 268,134 291,134C308,134 323,137 338,143C353,149 366,158 377,169C388,180 396,192 402,207C408,222 411,238 411,255C411,272 408,287 402,302C396,317 388,330 377,341C366,352 353,360 338,366C323,372 308,375 291,375C273,375 256,373 240,368C224,363 210,357 198,352C184,345 171,337 160,329l-87,86C73,418 73,422 74,425C74,428 74,431 75,434l66,316z"
       id="glyph215" /><glyph
       unicode="6"
       horiz-adv-x="600"
       d="M34,258C34,283 37,306 43,329C48,352 57,373 70,392l233,371l121,-77l-109,-168C314,517 314,516 314,515C314,514 315,513 316,513C351,510 383,501 414,488C445,474 471,456 494,434C516,412 534,386 547,357C560,327 566,294 566,258C566,221 559,187 545,155C531,122 512,94 488,70C464,46 436,27 404,13C371,-1 337,-8 300,-8C263,-8 229,-1 197,13C164,27 136,46 112,70C88,94 69,122 55,155C41,187 34,221 34,258M177,258C177,222 189,193 212,170C235,147 264,135 300,135C317,135 334,138 349,144C364,150 377,159 388,170C399,181 407,194 414,209C420,224 423,240 423,258C423,275 420,292 414,307C407,322 399,335 388,346C377,357 364,365 349,372C334,378 317,381 300,381C282,381 266,378 251,372C236,365 223,357 212,346C201,335 192,322 186,307C180,292 177,275 177,258z"
       id="glyph217" /><glyph
       unicode="9"
       horiz-adv-x="600"
       d="M566,489C566,464 563,441 558,418C552,395 543,374 530,355l-233,-367l-121,77l109,164C286,230 286,231 286,232C286,233 285,234 284,234C249,237 216,246 186,260C155,273 129,291 107,313C84,335 67,361 54,391C41,420 34,453 34,489C34,526 41,560 55,593C69,625 88,653 112,677C136,701 164,720 197,734C229,748 263,755 300,755C337,755 371,748 404,734C436,720 464,701 488,677C512,653 531,625 545,593C559,560 566,526 566,489M423,489C423,525 412,555 389,578C366,601 336,612 300,612C283,612 267,609 252,603C237,597 224,589 213,578C202,567 193,554 187,539C180,524 177,507 177,489C177,472 180,456 187,441C193,426 202,413 213,402C224,391 237,382 252,376C267,369 283,366 300,366C318,366 335,369 350,376C365,382 378,391 389,402C400,413 408,426 414,441C420,456 423,472 423,489z"
       id="glyph219" /><glyph
       unicode="²"
       horiz-adv-x="359"
       d="M55,404C56,406 61,411 70,419C79,427 89,437 102,448C114,459 127,471 141,484C155,497 168,509 181,520C193,531 204,541 213,550C222,558 227,563 230,565C237,571 242,578 246,587C250,596 252,604 252,612C252,629 246,643 235,655C224,666 209,672 192,672C179,672 167,668 157,660C146,652 139,642 135,630l-81,28C63,687 81,711 106,730C131,749 160,758 192,758C212,758 231,754 249,747C267,739 283,729 296,716C309,703 320,687 328,669C335,651 339,632 339,612C339,591 335,571 327,554C318,537 306,520 291,505C286,500 276,491 261,478C246,465 231,452 215,439C196,423 176,406 154,388C154,387 155,386 156,386l184,0l0,-86l-284,0z"
       id="glyph221" /><glyph
       unicode="³"
       horiz-adv-x="358"
       d="M72,703C82,720 96,734 113,744C130,754 149,759 170,759C185,759 200,756 214,750C227,744 239,736 250,726C260,715 268,703 274,690C280,676 283,661 283,645C283,618 274,594 256,574C255,573 254,572 254,571C254,570 255,569 256,569C277,555 293,537 306,516C319,494 325,469 325,442C325,422 321,403 314,385C306,367 295,351 282,338C269,324 253,313 235,306C217,298 198,294 177,294C152,294 130,300 110,311C89,322 72,338 58,357C52,365 47,375 43,386C38,397 36,409 36,421l80,11C119,417 127,404 138,395C149,386 163,381 178,381C195,381 210,388 222,401C233,414 239,430 239,449C239,466 234,482 223,495C212,508 198,516 183,520l-41,11l0,64l38,10C187,607 193,611 197,616C201,621 203,629 203,641C203,650 200,658 194,665C187,672 179,675 170,675C161,675 153,673 146,669C138,665 131,661 125,656C118,650 111,644 105,637z"
       id="glyph223" /><glyph
       unicode="7"
       horiz-adv-x="600"
       d="M83,750l424,0l0,-156l-264,-606l-131,57C140,108 165,165 187,215C209,265 229,309 246,347C263,385 277,418 289,446C301,473 311,497 320,516C340,561 353,591 359,606C359,609 358,610 355,610l-272,0z"
       id="glyph225" /><glyph
       unicode="8"
       horiz-adv-x="600"
       d="M89,546C89,575 95,602 106,628C117,653 132,676 151,695C170,714 193,730 218,741C243,752 271,757 300,757C329,757 356,752 382,741C407,730 430,714 449,695C468,676 484,653 495,628C506,602 511,575 511,546C511,519 505,496 494,476C482,455 468,436 452,418C464,408 476,397 488,384C499,371 509,357 518,342C527,327 534,310 539,293C544,275 547,257 547,238C547,204 541,172 528,142C515,112 497,86 475,64C452,41 426,24 396,11C366,-2 334,-9 300,-9C266,-9 234,-2 204,11C174,24 148,41 126,64C103,86 86,112 73,142C60,172 53,204 53,238C53,276 63,311 82,342C101,373 122,398 147,418C131,436 117,455 106,476C95,496 89,519 89,546M195,238C195,223 198,210 203,197C208,184 216,173 226,164C235,154 246,146 259,141C272,136 285,133 300,133C315,133 328,136 341,141C354,146 365,154 374,164C383,173 391,184 396,197C401,210 404,223 404,238C404,267 394,292 374,312C354,332 329,342 300,342C285,342 272,339 259,334C246,329 235,321 226,312C216,303 208,292 203,279C198,266 195,253 195,238M230,546C230,527 237,510 251,497C264,483 281,476 300,476C319,476 336,483 349,497C362,510 369,527 369,546C369,565 362,582 349,595C336,608 319,615 300,615C281,615 264,608 251,595C237,582 230,565 230,546z"
       id="glyph227" /><glyph
       unicode="⁄"
       horiz-adv-x="542"
       d="M34,1l414,765l54,-30l-415,-763z"
       id="glyph229" /><glyph
       unicode="¹"
       horiz-adv-x="241"
       d="M-23,750l158,0l0,-450l-86,0l0,366C49,668 48,669 45,669l-68,0z"
       id="glyph231" /><glyph
       unicode="º"
       horiz-adv-x="414"
       d="M35,551C35,575 40,597 49,618C58,639 70,657 86,673C101,688 120,701 141,710C162,719 185,723 209,723C233,723 255,719 276,710C297,701 315,688 331,673C346,657 359,639 368,618C377,597 381,575 381,551C381,527 377,504 368,483C359,462 346,443 331,428C315,412 297,400 276,391C255,382 233,377 209,377C185,377 162,382 141,391C120,400 101,412 86,428C70,443 58,462 49,483C40,504 35,527 35,551M127,551C127,528 135,508 151,493C166,477 186,469 209,469C232,469 251,477 267,493C282,508 290,528 290,551C290,574 282,593 267,609C251,624 232,632 209,632C186,632 166,624 151,609C135,593 127,574 127,551z"
       id="glyph233" /><glyph
       unicode="˛"
       horiz-adv-x="299"
       d="M234,0C225,-5 216,-11 206,-19C196,-27 187,-36 179,-46C170,-57 163,-68 158,-79C153,-90 150,-102 150,-113C150,-125 153,-134 160,-141C166,-148 175,-151 186,-151C191,-151 198,-150 205,-148C212,-147 218,-145 224,-143C231,-140 238,-138 245,-135l0,-52C240,-190 234,-194 227,-197C219,-201 210,-204 201,-207C192,-210 182,-213 173,-215C163,-217 154,-218 146,-218C119,-218 97,-210 80,-195C63,-180 54,-160 54,-134C54,-119 58,-104 65,-90C72,-76 82,-63 93,-51C104,-39 116,-29 129,-20C142,-11 154,-5 165,0z"
       id="glyph235" /><glyph
       unicode="§"
       horiz-adv-x="643"
       d="M315,758C345,758 376,753 408,743C440,733 469,716 495,691l0,-152C480,555 464,569 447,582C432,593 414,604 395,613C376,622 355,626 333,626C314,626 297,620 282,607C267,594 259,578 259,557C259,543 264,532 274,523C283,514 296,507 311,500C326,493 344,486 364,479C384,472 404,464 425,453C446,444 466,435 486,425C505,415 523,403 538,390C553,377 566,361 575,344C584,327 589,306 589,283C589,262 587,243 582,226C577,209 571,193 562,179C553,165 541,152 528,141C515,129 500,117 483,105C496,88 507,71 515,56C522,40 526,21 526,0C526,-29 520,-55 509,-78C497,-101 481,-120 462,-135C442,-151 419,-163 394,-171C369,-180 342,-184 315,-184C287,-184 262,-181 240,-176C217,-171 197,-164 180,-155C163,-146 148,-136 135,-125C122,-114 111,-103 102,-92C80,-65 65,-35 56,0l163,0C225,-10 232,-19 239,-26C246,-33 254,-39 264,-44C273,-49 284,-52 297,-52C305,-52 313,-51 322,-48C331,-46 339,-42 346,-37C353,-32 358,-26 363,-19C368,-12 370,-4 370,5C370,19 366,31 357,41C348,51 336,60 321,68C306,76 290,83 271,90C252,97 232,104 213,112C193,120 174,129 155,139C136,148 120,160 105,174C90,188 78,205 69,224C60,243 55,266 55,293C55,332 62,364 77,390C92,416 114,441 144,465C129,482 117,498 109,513C101,528 97,547 97,570C97,600 103,627 115,650C126,673 142,693 162,709C182,725 205,737 232,746C258,754 286,758 315,758M382,190C397,199 409,209 419,220C428,231 433,245 433,263C433,281 426,296 411,309C396,321 379,331 359,338l-110,43C237,372 227,361 218,350C209,339 205,325 205,310C205,293 210,280 219,270C228,259 240,250 256,243z"
       id="glyph237" /><glyph
       unicode="Ð"
       horiz-adv-x="834"
       d="M156,299l-102,0l0,114l102,0l0,337l246,0C454,750 503,740 549,720C595,700 635,673 669,639C703,605 730,565 750,520C769,475 779,426 779,375C779,324 769,275 750,230C730,185 703,145 669,111C635,77 595,50 549,30C503,10 454,0 402,0l-247,0M402,413l0,-114l-103,0l0,-150C299,145 301,143 305,143l97,0C436,143 467,149 496,160C525,171 549,187 570,208C591,228 607,252 619,281C630,310 636,341 636,375C636,409 631,440 620,469C609,498 593,522 573,543C553,563 529,579 501,590C473,601 442,607 408,607l-103,0C301,607 299,605 299,601l0,-188z"
       id="glyph239" /><glyph
       unicode="Ł"
       horiz-adv-x="598"
       d="M546,143l0,-143l-394,0l0,245l-64,-64l-81,81l145,145l0,343l143,0l0,-200l85,85l81,-81l-166,-166l0,-245z"
       id="glyph241" /><glyph
       unicode="ß"
       horiz-adv-x="560"
       d="M272,750C276,750 279,750 281,749C309,747 335,740 358,729C381,718 402,703 419,685C436,667 449,646 459,623C468,599 473,574 473,547C473,522 469,498 462,476C454,453 443,433 430,415C457,394 478,367 494,336C509,305 517,270 517,233C517,201 512,171 501,143C490,115 474,90 455,69C436,48 413,31 386,19C359,6 330,0 298,0l-71,0l0,143l65,0C305,143 316,146 327,151C337,156 346,163 353,172C360,181 365,191 369,203C372,214 374,226 374,239C374,252 371,264 366,276C361,287 354,297 345,306C336,315 325,322 314,327C303,332 291,334 280,334l0,123C300,458 314,467 323,482C332,497 336,515 336,534C336,553 329,570 315,585C301,600 283,607 262,607C247,607 235,604 227,599C218,594 212,588 208,581C204,574 202,568 201,562C200,556 200,553 200,552l0,-552l-143,0l0,552C57,578 62,603 72,626C81,649 95,670 112,687C129,704 149,719 172,730C195,741 221,747 249,749C251,750 254,750 258,750z"
       id="glyph243" /><glyph
       unicode="&quot;"
       horiz-adv-x="412"
       d="M241,750l114,0l0,-289l-114,0M57,750l114,0l0,-289l-114,0z"
       id="glyph245" /><glyph
       unicode="#"
       horiz-adv-x="704"
       d="M216,413l-134,0l0,96l148,0l29,208l96,0l-29,-208l96,0l29,208l96,0l-29,-208l135,0l0,-96l-149,0l-16,-114l135,0l0,-96l-149,0l-29,-203l-96,0C349,3 350,9 351,16C352,23 353,33 356,48C358,63 361,82 365,107C368,132 373,164 378,203l-96,0l-29,-203l-96,0C157,3 158,9 159,16C160,23 161,33 164,48C166,63 169,82 173,107C176,132 181,164 186,203l-134,0l0,96l148,0M297,299l95,0l16,114l-95,0z"
       id="glyph247" /><glyph
       unicode="'"
       horiz-adv-x="226"
       d="M56,750l114,0l0,-289l-114,0z"
       id="glyph249" /><glyph
       unicode="a"
       horiz-adv-x="587"
       d="M161,250C161,233 164,216 171,201C177,186 186,173 197,162C208,151 221,142 236,136C251,129 267,126 284,126C301,126 318,129 333,136C348,142 361,151 372,162C383,173 391,186 398,201C404,216 407,233 407,250C407,267 404,284 398,299C391,314 383,328 372,339C361,350 348,358 333,365C318,371 301,374 284,374C267,374 251,371 236,365C221,358 208,350 197,339C186,328 177,314 171,299C164,284 161,267 161,250M26,250C26,285 33,319 47,350C60,381 79,409 102,432C125,455 153,474 184,488C215,501 249,508 284,508C309,508 332,505 355,498C378,491 399,482 418,470l1,30l124,0l0,-501l-125,30C378,4 333,-8 284,-8C249,-8 215,-1 184,13C153,26 125,45 102,68C79,91 60,119 47,150C33,181 26,215 26,250z"
       id="glyph251" /><glyph
       unicode="i"
       horiz-adv-x="226"
       d="M45,501l136,0l0,-501l-136,0M45,610C45,628 52,644 65,658C78,671 95,678 114,678C132,678 148,671 162,658C175,644 182,628 182,610C182,591 175,574 162,561C148,548 132,541 114,541C95,541 78,548 65,561C52,574 45,591 45,610z"
       id="glyph253" /><glyph
       unicode="l"
       horiz-adv-x="226"
       d="M45,700l136,0l0,-700l-136,0z"
       id="glyph255" /><glyph
       unicode="b"
       horiz-adv-x="602"
       d="M428,250C428,267 425,284 419,299C412,314 404,328 393,339C382,350 369,358 354,365C339,371 322,374 305,374C288,374 272,371 257,365C242,358 229,350 218,339C207,328 198,314 192,299C185,284 182,267 182,250C182,233 185,216 192,201C198,186 207,173 218,162C229,151 242,142 257,136C272,129 288,126 305,126C322,126 339,129 354,136C369,142 382,151 393,162C404,173 412,186 419,201C425,216 428,233 428,250M45,701l136,0l0,-225C199,486 218,494 239,500C260,505 282,508 305,508C340,508 374,501 405,488C436,474 464,455 487,432C510,409 529,381 543,350C556,319 563,285 563,250C563,215 556,181 543,150C529,119 510,91 487,68C464,45 436,26 405,13C374,-1 340,-8 305,-8C279,-8 255,-4 232,3C209,10 189,18 171,28l-126,-28z"
       id="glyph257" /><glyph
       unicode="d"
       horiz-adv-x="606"
       d="M180,250C180,233 183,216 190,201C196,186 205,173 216,162C227,151 240,142 255,136C270,129 286,126 303,126C320,126 337,129 352,136C367,142 380,151 391,162C402,173 410,186 417,201C423,216 426,233 426,250C426,267 423,284 417,299C410,314 402,328 391,339C380,350 367,358 352,365C337,371 320,374 303,374C286,374 270,371 255,365C240,358 227,350 216,339C205,328 196,314 190,299C183,284 180,267 180,250M563,0l-126,28C419,18 399,10 376,3C353,-4 329,-8 303,-8C268,-8 234,-1 203,13C172,26 144,45 121,68C98,91 79,119 66,150C52,181 45,215 45,250C45,285 52,319 66,350C79,381 98,409 121,432C144,455 172,474 203,488C234,501 268,508 303,508C326,508 348,505 369,500C390,494 409,486 427,476l0,224l136,0z"
       id="glyph259" /><glyph
       unicode="p"
       horiz-adv-x="601"
       d="M428,250C428,267 425,284 419,299C412,314 404,328 393,339C382,350 369,358 354,365C339,371 322,374 305,374C288,374 272,371 257,365C242,358 229,350 218,339C207,328 198,314 192,299C185,284 182,267 182,250C182,233 185,216 192,201C198,186 207,173 218,162C229,151 242,142 257,136C272,129 288,126 305,126C322,126 339,129 354,136C369,142 382,151 393,162C404,173 412,186 419,201C425,216 428,233 428,250M45,500l126,-28C189,482 209,491 232,498C255,505 279,508 305,508C340,508 374,501 405,488C436,474 464,455 487,432C510,409 529,381 543,350C556,319 563,285 563,250C563,215 556,181 543,150C529,119 510,91 487,68C464,45 436,26 405,13C374,-1 340,-8 305,-8C282,-8 260,-5 239,1C218,6 199,14 181,24l0,-229l-136,0z"
       id="glyph261" /><glyph
       unicode="q"
       horiz-adv-x="606"
       d="M180,250C180,233 183,216 190,201C196,186 205,173 216,162C227,151 240,142 255,136C270,129 286,126 303,126C320,126 337,129 352,136C367,142 380,151 391,162C402,173 410,186 417,201C423,216 426,233 426,250C426,267 423,284 417,299C410,314 402,328 391,339C380,350 367,358 352,365C337,371 320,374 303,374C286,374 270,371 255,365C240,358 227,350 216,339C205,328 196,314 190,299C183,284 180,267 180,250M563,-205l-136,0l0,229C409,14 390,6 369,1C348,-5 326,-8 303,-8C268,-8 234,-1 203,13C172,26 144,45 121,68C98,91 79,119 66,150C52,181 45,215 45,250C45,285 52,319 66,350C79,381 98,409 121,432C144,455 172,474 203,488C234,501 268,508 303,508C329,508 353,505 376,498C399,491 419,482 437,472l126,28z"
       id="glyph263" /><glyph
       unicode="o"
       horiz-adv-x="582"
       d="M172,251C172,234 175,218 182,203C188,188 197,176 208,165C219,154 231,145 246,139C261,132 277,129 294,129C311,129 326,132 341,139C356,145 369,154 380,165C391,176 399,188 406,203C412,218 415,234 415,251C415,268 412,283 406,298C399,313 391,326 380,337C369,348 356,356 341,363C326,369 311,372 294,372C277,372 261,369 246,363C231,356 219,348 208,337C197,326 188,313 182,298C175,283 172,268 172,251M35,251C35,286 42,320 55,351C68,382 87,410 111,433C134,456 162,475 193,488C224,501 258,508 294,508C329,508 363,501 394,488C425,475 453,456 476,433C499,410 518,382 531,351C544,320 551,286 551,251C551,215 544,181 531,150C518,119 499,91 476,68C453,44 425,25 394,12C363,-1 329,-8 294,-8C258,-8 224,-1 193,12C162,25 134,44 111,68C87,91 68,119 55,150C42,181 35,215 35,251z"
       id="glyph265" /><glyph
       unicode="c"
       horiz-adv-x="550"
       d="M294,508C316,508 338,505 359,499C380,493 399,485 418,475C436,464 453,452 468,439C483,425 496,410 506,395l-101,-75C399,325 393,331 386,338C379,344 372,350 364,355C355,360 346,364 335,367C324,370 311,372 296,372C279,372 263,369 248,363C233,356 221,348 210,337C199,326 190,313 184,298C177,283 174,268 174,251C174,234 177,218 184,203C190,188 199,176 210,165C221,154 233,145 248,139C263,132 279,129 296,129C319,129 339,135 356,146C373,157 389,173 404,194l119,-60C501,92 470,58 430,32C389,5 344,-8 294,-8C258,-8 224,-1 193,12C162,25 134,44 111,68C87,91 68,119 55,150C42,181 35,215 35,251C35,286 42,320 55,351C68,382 87,410 111,433C134,456 162,475 193,488C224,501 258,508 294,508z"
       id="glyph267" /><glyph
       unicode="ð"
       horiz-adv-x="640"
       d="M443,258C443,275 440,292 434,307C428,322 420,335 409,346C398,357 385,365 370,372C355,378 338,381 320,381C303,381 287,378 272,372C257,365 244,357 233,346C222,335 213,322 207,307C200,292 197,275 197,258C197,240 200,224 207,209C213,194 222,181 233,170C244,159 257,150 272,144C287,138 303,135 320,135C356,135 386,147 409,170C432,193 443,222 443,258M398,631l152,-239C563,373 572,352 578,329C583,306 586,283 586,258C586,221 579,187 565,155C551,122 532,94 508,70C484,46 456,27 424,13C391,-1 357,-8 320,-8C283,-8 249,-1 217,13C184,27 156,46 132,70C108,94 89,122 75,155C61,187 54,221 54,258C54,294 61,327 74,357C87,386 104,412 127,434C149,456 175,474 206,488C236,501 269,510 304,513C305,513 306,514 306,515C306,516 306,517 305,518l-21,31l-50,-36l-66,94l51,37l-27,39l112,83l32,-39l52,36l65,-94z"
       id="glyph269" /><glyph
       unicode="ø"
       horiz-adv-x="582"
       d="M171,-62l19,75C167,23 146,36 127,52C108,68 91,86 78,107C65,127 54,149 47,174C39,199 35,224 35,251C35,286 42,320 55,351C68,382 87,410 111,433C134,456 162,475 193,488C224,501 258,508 294,508C307,508 320,507 333,505l17,56l64,0l-21,-73C416,478 438,465 457,450C476,434 493,416 507,395C521,374 532,352 540,328C547,303 551,278 551,251C551,215 544,181 531,150C518,119 499,91 476,68C453,44 425,25 394,12C363,-1 329,-8 294,-8C286,-8 278,-8 271,-7C264,-6 256,-5 249,-4l-17,-58M429,251C429,276 423,300 410,321C397,342 379,359 358,370l-74,-254l10,0C313,116 330,120 347,127C363,134 377,143 390,156C402,168 412,182 419,199C426,215 429,232 429,251M159,251C159,226 165,203 177,182C189,161 205,145 226,134l73,252l-5,0C275,386 258,383 242,376C225,369 211,359 199,347C186,334 177,320 170,304C163,287 159,270 159,251z"
       id="glyph271" /><glyph
       unicode="¢"
       horiz-adv-x="563"
       d="M338,503C374,496 407,483 436,463C465,443 489,420 506,395l-98,-70C399,334 389,344 379,355C369,366 355,374 338,379l0,-256C364,133 387,151 407,178C410,181 412,184 414,188l109,-54C504,98 478,68 446,44C414,19 378,3 338,-4l0,-81l-114,0l0,86C197,8 171,20 148,36C125,51 105,70 88,92C71,114 58,139 49,166C40,193 35,221 35,251C35,280 40,308 49,335C58,362 71,386 88,408C105,429 125,448 148,464C171,479 197,491 224,498l0,96l114,0M159,251C159,226 165,203 177,183C189,162 205,146 224,135l0,232C205,355 189,339 177,319C165,298 159,276 159,251z"
       id="glyph273" /><glyph
       unicode="!"
       horiz-adv-x="226"
       d="M182,169l-136,0l0,581l136,0M182,64C182,46 175,30 162,17C149,3 132,-4 113,-4C95,-4 79,3 66,17C52,30 45,46 45,64C45,83 52,100 66,113C79,126 95,133 113,133C132,133 149,126 162,113C175,100 182,83 182,64z"
       id="glyph275" /><glyph
       unicode="ª"
       horiz-adv-x="420"
       d="M125,552C125,529 133,509 149,493C164,477 184,469 207,469C230,469 250,477 266,493C282,509 290,529 290,552C290,575 282,595 266,611C250,627 230,635 207,635C184,635 164,627 149,611C133,595 125,575 125,552M34,552C34,576 39,599 48,620C57,641 69,659 85,675C100,690 119,703 140,712C161,721 183,725 207,725C224,725 240,723 255,718C270,713 284,707 297,699l1,26l84,0l0,-341l-85,20C270,387 240,379 207,379C183,379 161,384 140,393C119,402 100,414 85,430C69,445 57,464 48,485C39,506 34,528 34,552z"
       id="glyph277" /><glyph
       unicode="þ"
       horiz-adv-x="601"
       d="M428,250C428,267 425,284 419,299C412,314 404,328 393,339C382,350 369,358 354,365C339,371 322,374 305,374C288,374 272,371 257,365C242,358 229,350 218,339C207,328 198,314 192,299C185,284 182,267 182,250C182,233 185,216 192,201C198,186 207,173 218,162C229,151 242,142 257,136C272,129 288,126 305,126C322,126 339,129 354,136C369,142 382,151 393,162C404,173 412,186 419,201C425,216 428,233 428,250M45,700l136,0l0,-223C198,486 217,494 238,500C259,505 281,508 305,508C340,508 374,501 405,488C436,474 464,455 487,432C510,409 529,381 543,350C556,319 563,285 563,250C563,215 556,181 543,150C529,119 510,91 487,68C464,45 436,26 405,13C374,-1 340,-8 305,-8C282,-8 260,-5 239,1C218,6 199,14 181,24l0,-231l-136,0z"
       id="glyph279" /><glyph
       unicode="ı"
       horiz-adv-x="210"
       d="M45,500l121,0l0,-500l-121,0z"
       id="glyph281" /><glyph
       unicode="e"
       horiz-adv-x="533"
       d="M287,119C318,119 346,124 369,133C392,142 412,151 429,160l7,3l45,-100C469,51 455,41 439,32C423,23 407,15 390,10C373,4 355,0 338,-3C320,-6 303,-8 287,-8C251,-8 217,-1 186,12C155,25 127,44 104,68C80,91 61,119 48,150C35,181 28,215 28,251C28,286 35,320 48,351C61,382 80,410 103,433C126,456 154,474 185,487C216,500 250,507 285,507C324,507 357,500 385,485C413,470 436,450 454,427C472,404 485,378 494,350C503,321 507,293 507,266C507,245 504,224 499,204l-320,0C177,204 176,202 176,199C185,178 200,159 220,143C239,127 262,119 287,119M284,372C261,372 240,366 222,355C203,344 189,329 179,310C179,309 179,309 179,309C178,308 178,308 178,307C178,305 179,304 182,304l178,0C363,304 364,305 364,306C364,323 357,338 342,352C327,365 307,372 284,372z"
       id="glyph283" /><glyph
       unicode="f"
       horiz-adv-x="475"
       d="M141,558C141,603 152,638 175,664C198,689 231,702 276,702l136,0l0,-118l-80,0C314,584 300,581 291,575C282,569 277,556 277,537l0,-37l165,0l0,-122l-165,0l0,-378l-136,0l0,378l-111,0l0,122l111,0z"
       id="glyph285" /><glyph
       unicode="t"
       horiz-adv-x="432"
       d="M151,644l136,0l0,-144l115,0l0,-122l-115,0l0,-378l-136,0l0,378l-118,0l0,122l118,0z"
       id="glyph287" /><glyph
       unicode="g"
       horiz-adv-x="608"
       d="M180,250C180,233 183,216 190,201C196,186 205,173 216,162C227,151 240,142 255,136C270,129 286,126 303,126C320,126 337,129 352,136C367,142 380,151 391,162C402,173 410,186 417,201C423,216 426,233 426,250C426,267 423,284 417,299C410,314 402,328 391,339C380,350 367,358 352,365C337,371 320,374 303,374C286,374 270,371 255,365C240,358 227,350 216,339C205,328 196,314 190,299C183,284 180,267 180,250M192,-64C204,-73 219,-82 236,-90C253,-99 271,-103 290,-103C308,-103 325,-100 341,-93C356,-87 370,-78 383,-67C395,-56 405,-42 413,-27C421,-12 426,4 428,21C428,21 428,22 427,23l0,1C409,14 390,6 369,1C348,-5 326,-8 303,-8C268,-8 234,-1 203,13C172,26 144,45 121,68C98,91 79,119 66,150C52,181 45,215 45,250C45,285 52,319 66,350C79,381 98,409 121,432C144,455 172,474 203,488C234,501 268,508 303,508C329,508 353,505 376,498C399,491 419,482 437,472l126,28l0,-447C563,15 556,-21 542,-54C527,-88 508,-118 483,-143C458,-168 428,-188 395,-203C361,-218 325,-225 286,-225C253,-225 220,-219 189,-206C158,-193 130,-176 107,-155z"
       id="glyph289" /><glyph
       unicode="ł"
       horiz-adv-x="446"
       d="M154,700l136,0l0,-162l59,59l81,-81l-140,-140l0,-376l-136,0l0,240l-59,-59l-81,81l140,140z"
       id="glyph291" /><glyph
       unicode="h"
       horiz-adv-x="535"
       d="M181,490C194,495 208,500 223,503C237,506 252,508 267,508C338,508 393,489 432,451C471,412 490,358 490,287l0,-287l-136,0l0,285C354,309 346,330 329,347C312,364 291,372 267,372C243,372 223,364 206,347C189,330 180,309 180,285l0,-285l-135,0l0,701l136,0z"
       id="glyph293" /><glyph
       unicode="ƒ"
       horiz-adv-x="475"
       d="M277,10C277,-35 266,-70 243,-95C220,-121 187,-134 142,-134l-134,0l0,118l78,0C104,-16 118,-13 127,-7C136,-1 141,12 141,31l0,347l-108,0l0,122l108,0l0,58C141,603 152,638 175,664C198,689 231,702 276,702l136,0l0,-118l-80,0C314,584 300,581 291,575C282,569 277,556 277,537l0,-37l163,0l0,-122l-163,0l0,-305z"
       id="glyph295" /><glyph
       unicode="n"
       horiz-adv-x="533"
       d="M44,500l122,-19C181,491 197,498 215,502C232,506 250,508 267,508C338,508 393,489 432,451C471,412 490,358 490,287l0,-287l-136,0l0,285C354,309 346,330 329,347C312,364 291,372 267,372C244,372 224,364 207,349C190,334 181,314 180,291l0,-291l-136,0z"
       id="glyph297" /><glyph
       unicode="u"
       horiz-adv-x="535"
       d="M490,-1l-122,20C353,9 337,2 320,-2C302,-6 284,-8 267,-8C196,-8 142,11 103,50C64,88 44,142 44,213l0,287l136,0l0,-285C180,191 189,171 206,154C223,137 243,128 267,128C290,128 310,136 327,151C344,166 353,186 354,209l0,291l136,0z"
       id="glyph299" /><glyph
       unicode="m"
       horiz-adv-x="844"
       d="M44,500l122,-19C181,491 197,498 215,502C232,506 250,508 267,508C300,508 329,504 355,495C380,486 403,474 422,458C461,491 513,508 577,508C648,508 703,489 742,451C781,412 800,358 800,287l0,-287l-136,0l0,285C664,309 656,330 639,347C622,364 601,372 577,372C554,372 534,364 517,349C500,334 491,314 490,291l0,-291l-136,0l0,285C354,309 346,330 329,347C312,364 291,372 267,372C244,372 224,364 207,349C190,334 181,314 180,291l0,-291l-136,0z"
       id="glyph301" /><glyph
       unicode="j"
       horiz-adv-x="226"
       d="M45,610C45,628 52,644 65,658C78,671 95,678 114,678C132,678 148,671 162,658C175,644 182,628 182,610C182,591 175,574 162,561C148,548 132,541 114,541C95,541 78,548 65,561C52,574 45,591 45,610M0,-90l33,0C41,-87 45,-78 45,-63l0,565l136,0l0,-605C181,-125 178,-144 171,-159C164,-175 155,-188 144,-197C133,-207 120,-214 107,-218C93,-223 79,-225 65,-225l-65,0z"
       id="glyph303" /><glyph
       unicode="k"
       horiz-adv-x="468"
       d="M181,299C181,297 181,296 182,296C183,296 184,297 185,298l127,202l149,0l-152,-243C308,254 307,253 307,252C307,251 308,249 309,246l155,-246l-153,0C283,45 261,81 244,108C227,135 214,155 205,170C194,187 187,199 183,206C182,206 181,204 181,201l0,-201l-136,0l0,751l136,0z"
       id="glyph305" /><glyph
       unicode="r"
       horiz-adv-x="370"
       d="M44,500l122,-19C181,491 197,498 215,502C232,506 250,508 267,508l71,0l0,-137l-71,0C244,371 224,364 207,349C190,334 181,314 180,291l0,-291l-136,0z"
       id="glyph307" /><glyph
       unicode="v"
       horiz-adv-x="478"
       d="M466,500l-174,-500l-105,0l-174,500l145,0l79,-268l0,-2C237,229 238,228 239,228C239,228 240,229 241,230C241,231 241,231 242,232l78,268z"
       id="glyph309" /><glyph
       unicode="w"
       horiz-adv-x="721"
       d="M456,0l-99,278C340,228 325,183 312,143C306,126 300,109 295,93C289,76 284,61 280,48C275,35 272,24 269,15C266,6 264,1 263,0l-116,0l-135,500l142,0C169,438 182,388 191,350C200,311 207,282 212,261C217,240 220,226 222,219C223,212 224,208 225,208C226,208 227,209 228,210l79,289l106,0C431,439 445,390 456,353C467,316 475,287 481,266C486,245 490,231 492,224C494,217 495,213 496,213C497,213 498,214 499,215l65,285l142,0l-135,-500z"
       id="glyph311" /><glyph
       unicode="x"
       horiz-adv-x="515"
       d="M497,0l-165,0l-70,136C261,137 259,138 257,138C254,138 253,137 253,136l-70,-136l-165,0l156,245C175,248 176,249 176,250C176,251 175,253 174,256l-153,244l162,0l70,-135C254,363 255,362 257,362C258,362 260,363 261,365l70,135l162,0l-152,-244C340,255 339,253 339,250C339,248 340,246 341,245z"
       id="glyph313" /><glyph
       unicode="y"
       horiz-adv-x="477"
       d="M223,-207l-145,0l88,250C167,45 167,48 167,52C167,55 167,58 166,60l-153,440l146,0l78,-268C238,231 238,231 238,230C238,229 238,228 239,228C239,228 240,229 241,230C241,231 241,231 242,232l78,268l144,0z"
       id="glyph315" /><glyph
       unicode="s"
       horiz-adv-x="359"
       d="M123,157C132,150 139,142 145,134C151,126 160,122 173,122C179,122 185,125 192,131C198,136 201,143 201,151C201,162 196,172 186,181C175,190 165,196 156,201C152,202 149,204 147,205C138,210 127,216 114,223C101,230 89,239 78,251C66,262 56,277 48,294C39,311 35,332 35,357C35,403 48,440 75,467C102,494 138,508 184,508C210,507 232,501 249,490C266,479 280,466 291,452C303,435 313,417 321,397l-93,-49C225,357 220,365 214,371C208,376 199,379 188,379C182,379 176,377 170,372C164,367 161,360 161,352C161,341 165,333 173,326C181,319 191,312 204,305C216,298 229,290 244,282C258,273 271,263 284,251C296,239 306,224 314,206C322,188 326,166 326,140C326,119 322,100 315,82C307,64 297,48 284,35C271,22 255,11 238,4C221,-4 202,-8 182,-8C153,-8 129,-2 110,9C91,20 75,33 63,46C49,62 38,80 29,100z"
       id="glyph317" /><glyph
       unicode="š"
       horiz-adv-x="359"
       d="M29,100C29,118 35,134 46,148C57,161 73,168 92,168C103,168 112,166 119,161C125,156 131,151 136,145C141,139 146,134 151,129C156,124 164,122 173,122C179,122 185,125 192,131C198,136 201,143 201,151C201,162 196,173 186,182C175,191 165,197 156,201C152,202 149,204 147,205C138,210 127,216 114,223C101,230 89,239 78,251C66,262 56,277 48,294C39,311 35,332 35,357C35,403 48,440 75,467C102,494 138,508 184,508C202,508 219,505 236,498C252,491 266,483 279,473C292,462 302,450 310,437C317,424 321,410 321,397C321,378 315,361 304,348C293,335 278,328 260,328C247,328 238,331 231,337C224,342 216,351 208,363C203,373 195,378 184,378C178,378 173,376 168,371C163,366 161,360 161,352C161,341 165,333 173,326C181,319 191,312 204,305C216,298 229,290 244,282C258,273 271,263 284,251C296,239 306,224 314,206C322,188 326,166 326,140C326,119 322,100 315,82C307,64 297,48 284,35C271,22 255,11 238,4C221,-4 202,-8 182,-8C162,-8 143,-6 125,-2C106,2 90,9 76,18C61,27 50,38 42,51C33,64 29,81 29,100M79,644C65,649 54,657 47,666C39,675 35,687 35,702C35,717 41,731 53,742C64,753 78,758 93,758C98,758 106,756 115,752C124,748 133,744 142,741l37,-16l37,16C225,744 235,748 244,752C253,756 260,758 266,758C281,758 295,753 307,742C318,731 324,717 324,702C324,687 320,675 313,666C305,657 294,650 280,644l-101,-41z"
       id="glyph319" /><glyph
       unicode="*"
       horiz-adv-x="441"
       d="M40,586l109,-25l-94,60l76,76l60,-95l-25,110l109,0l-25,-110l60,95l76,-76l-95,-60l110,25l0,-109l-110,25l95,-60l-76,-76l-60,94l25,-109l-109,0l25,110l-60,-95l-76,76l95,60l-110,-25z"
       id="glyph321" /><glyph
       unicode="€"
       horiz-adv-x="602"
       d="M279,161C290,152 302,145 317,140C326,137 336,136 349,136C367,136 384,140 399,149C414,157 427,168 437,181C450,197 468,205 493,205C513,205 530,199 543,186C556,173 563,155 563,134C563,117 559,102 550,91C527,61 498,37 463,19C428,1 390,-8 349,-8C338,-8 327,-7 317,-6C307,-5 297,-3 287,0C279,1 271,4 263,7C255,10 247,14 240,17C210,31 184,50 161,75l-6,8C142,98 131,115 122,132C114,146 108,161 104,177C101,186 99,194 98,203C96,212 95,221 94,230C77,231 63,236 53,246C43,256 38,270 38,287C38,304 43,318 53,328C63,337 77,343 94,344l0,54C77,399 63,404 53,414C43,424 38,438 38,455C38,472 43,486 53,496C63,505 77,511 94,512C94,513 94,515 94,518C94,520 94,522 95,523C97,552 104,579 116,605C127,630 142,653 161,674C180,695 202,712 227,726C252,740 278,749 307,754C312,755 316,756 318,756C319,756 321,756 322,756C327,757 331,757 336,758C340,758 344,758 349,758C390,758 428,749 463,731C498,713 527,689 550,659C559,648 563,633 563,616C563,595 556,578 543,565C530,552 513,545 493,545C468,545 450,553 437,569C427,582 414,593 399,602C384,610 367,614 349,614C332,614 316,610 301,603C296,600 292,598 289,596C286,595 284,593 282,591C280,589 278,587 275,585l-9,-9C253,563 245,548 240,531l-3,-13C237,517 237,516 237,515C236,514 236,513 236,512l199,0C454,512 468,507 479,497C490,487 495,473 495,455C495,437 490,423 479,413C468,403 454,398 435,398l-199,0l0,-54l199,0C454,344 468,339 479,329C490,319 495,305 495,287C495,269 490,255 479,245C468,234 454,228 435,227l-197,0C239,222 241,217 243,212C244,207 246,203 248,198l5,-7C260,180 267,171 275,164l4,-3z"
       id="glyph323" /><glyph
       unicode="z"
       horiz-adv-x="427"
       d="M208,350C211,353 212,356 212,358C212,363 206,366 195,366l-156,0l0,134l349,0l0,-102C388,398 384,392 376,380C367,368 357,353 344,335C331,316 316,296 301,275C286,254 272,234 259,215C246,196 235,179 226,166C217,152 213,144 213,142C213,137 218,135 228,135l160,0l0,-135l-349,0l0,107C71,152 100,192 125,228C136,243 146,258 156,273C166,288 175,301 183,312C191,323 197,333 202,340C206,347 208,350 208,350z"
       id="glyph325" /><glyph
       unicode="Þ"
       horiz-adv-x="873"
       d="M200,306C200,302 202,300 206,300l82,0C303,300 315,303 325,309C334,315 342,323 348,332C353,341 357,350 360,360C362,370 363,379 363,387C363,395 362,404 360,413C357,422 353,431 348,440C342,448 334,455 325,461C315,466 303,469 288,469l-82,0C202,469 200,467 200,463M57,750l143,0l0,-139C209,611 218,611 229,611C239,611 248,611 257,611C265,611 272,611 278,612C284,612 287,612 288,612C320,612 349,606 376,595C403,583 426,567 445,547C464,527 479,503 490,476C501,449 506,419 506,387C506,355 501,325 490,298C479,270 464,246 445,225C426,204 403,187 376,175C349,163 320,157 288,157l-82,0C202,157 200,155 200,152l0,-152l-143,0z"
       id="glyph327" /><glyph
       unicode="?"
       horiz-adv-x="450"
       d="M269,64C269,46 262,30 249,17C236,3 219,-4 200,-4C182,-4 166,3 153,17C139,30 132,46 132,64C132,83 139,100 153,113C166,126 182,133 200,133C219,133 236,126 249,113C262,100 269,83 269,64M126,172C123,183 120,194 117,207C115,218 113,232 112,247C110,262 109,278 109,297C109,322 113,344 121,363C128,382 138,400 150,416C162,431 175,445 188,458C201,471 214,483 226,495C238,507 248,519 256,531C263,543 267,556 267,570C267,581 265,589 262,596C259,602 255,607 251,610C246,613 242,615 237,616C232,617 227,617 224,617C211,617 199,613 186,606C173,599 162,590 151,581C139,570 127,559 115,546l-88,90C44,659 64,679 86,697C105,712 126,726 151,739C175,752 201,758 229,758C286,758 331,743 364,713C397,683 413,637 413,576C413,547 410,523 404,503C397,482 389,465 379,450C369,435 358,423 345,412C332,401 320,391 309,381C297,371 286,360 276,349C266,338 258,324 253,309C251,304 250,298 249,292C248,285 248,279 248,272C248,259 249,246 251,235C252,223 254,212 257,203C260,192 263,182 266,173z"
       id="glyph329" /><glyph
       unicode="À"
       horiz-adv-x="750"
       d="M577,0l-59,135C517,138 514,140 510,140l-271,0C235,140 232,138 231,135l-56,-135l-154,0l299,750l109,0l301,-750M375,495C374,495 373,494 373,493C372,492 372,492 372,491l-84,-211C287,279 287,278 287,276C287,274 288,273 291,273l167,0C461,273 462,274 462,277C462,278 462,279 461,280l-83,211C377,492 377,492 377,493C376,494 375,495 375,495M492,887l-62,-97l-172,70l48,106z"
       id="glyph331" /><glyph
       unicode="Á"
       horiz-adv-x="750"
       d="M577,0l-59,135C517,138 514,140 510,140l-271,0C235,140 232,138 231,135l-56,-135l-154,0l299,750l109,0l301,-750M375,495C374,495 373,494 373,493C372,492 372,492 372,491l-84,-211C287,279 287,278 287,276C287,274 288,273 291,273l167,0C461,273 462,274 462,277C462,278 462,279 461,280l-83,211C377,492 377,492 377,493C376,494 375,495 375,495M444,966l48,-106l-172,-70l-62,97z"
       id="glyph333" /><glyph
       unicode="Š"
       horiz-adv-x="539"
       d="M169,199C179,182 191,167 206,154C220,141 240,134 267,134C288,134 306,142 320,157C334,172 341,190 341,210C341,228 339,243 334,255C329,266 322,276 313,284C304,291 293,297 280,302C267,307 252,312 237,317C211,325 187,336 165,349C143,362 124,378 108,396C91,414 79,435 70,458C61,481 56,506 56,533C56,567 61,598 72,625C82,652 97,676 116,695C135,714 158,729 185,740C212,751 242,756 275,756C293,756 312,753 331,748C350,743 369,735 386,725C403,714 418,701 431,686C444,671 454,653 461,632l-129,-62C324,587 314,599 301,604C288,609 276,612 266,612C247,612 232,605 219,590C206,575 199,558 199,539C199,524 203,512 210,502C217,492 227,483 238,476C249,469 260,463 272,458C284,453 295,448 305,444C336,431 363,417 386,402C409,387 427,371 442,353C456,335 467,314 474,291C481,268 484,241 484,210C484,180 479,152 468,125C457,98 442,75 423,56C404,36 381,20 356,9C330,-2 302,-8 273,-8l-9,0C221,-8 187,0 160,17C133,33 111,51 96,71C78,94 64,120 55,150M118,861l63,97l87,-33l89,39l64,-97l-153,-64z"
       id="glyph335" /><glyph
       unicode="Ÿ"
       horiz-adv-x="594"
       d="M174,750l120,-300C295,448 296,447 297,447C298,447 299,448 300,450l121,299l156,0l-208,-479l0,-270l-143,0l0,270l-210,480M332,883C332,902 339,918 352,931C365,944 380,950 399,950C418,950 435,944 448,931C461,918 467,902 467,883C467,864 461,849 448,836C435,823 418,816 399,816C380,816 365,823 352,836C339,849 332,864 332,883M126,883C126,902 133,918 146,931C159,944 175,950 194,950C213,950 229,944 242,931C255,918 261,902 261,883C261,864 255,849 242,836C229,823 213,816 194,816C175,816 159,823 146,836C133,849 126,864 126,883z"
       id="glyph337" /><glyph
       unicode="ÿ"
       horiz-adv-x="477"
       d="M223,-207l-145,0l88,250C167,45 167,48 167,52C167,55 167,58 166,60l-153,440l146,0l78,-268C238,231 238,231 238,230C238,229 238,228 239,228C239,228 240,229 241,230C241,231 241,231 242,232l78,268l144,0M274,683C274,702 281,718 294,731C307,744 322,750 341,750C360,750 377,744 390,731C403,718 409,702 409,683C409,664 403,649 390,636C377,623 360,616 341,616C322,616 307,623 294,636C281,649 274,664 274,683M68,683C68,702 75,718 88,731C101,744 117,750 136,750C155,750 171,744 184,731C197,718 203,702 203,683C203,664 197,649 184,636C171,623 155,616 136,616C117,616 101,623 88,636C75,649 68,664 68,683z"
       id="glyph339" /><glyph
       unicode="ý"
       horiz-adv-x="477"
       d="M223,-207l-145,0l88,250C167,45 167,48 167,52C167,55 167,58 166,60l-153,440l146,0l78,-268C238,231 238,231 238,230C238,229 238,228 239,228C239,228 240,229 241,230C241,231 241,231 242,232l78,268l144,0M307,766l48,-106l-172,-70l-62,97z"
       id="glyph341" /><glyph
       unicode="Ý"
       horiz-adv-x="594"
       d="M174,750l120,-300C295,448 296,447 297,447C298,447 299,448 300,450l121,299l156,0l-208,-479l0,-270l-143,0l0,270l-210,480M366,966l48,-106l-172,-70l-62,97z"
       id="glyph343" /><glyph
       unicode="Ü"
       horiz-adv-x="607"
       d="M56,749l143,0l0,-516C199,218 202,205 209,194C216,182 224,172 235,164C245,155 256,149 269,145C282,140 294,138 306,138C319,138 332,140 345,145C357,150 368,156 377,165C386,173 394,183 400,194C405,205 408,216 408,229l0,520l143,0l0,-536C551,181 544,152 531,125C517,98 499,75 476,56C453,37 427,22 398,11C369,0 338,-5 306,-5C274,-5 243,0 213,11C183,22 156,37 133,56C110,75 91,98 77,125C63,152 56,181 56,213M339,883C339,902 346,918 359,931C372,944 387,950 406,950C425,950 442,944 455,931C468,918 474,902 474,883C474,864 468,849 455,836C442,823 425,816 406,816C387,816 372,823 359,836C346,849 339,864 339,883M133,883C133,902 140,918 153,931C166,944 182,950 201,950C220,950 236,944 249,931C262,918 268,902 268,883C268,864 262,849 249,836C236,823 220,816 201,816C182,816 166,823 153,836C140,849 133,864 133,883z"
       id="glyph345" /><glyph
       unicode="ü"
       horiz-adv-x="535"
       d="M490,-1l-122,20C353,9 337,2 320,-2C302,-6 284,-8 267,-8C196,-8 142,11 103,50C64,88 44,142 44,213l0,287l136,0l0,-285C180,191 189,171 206,154C223,137 243,128 267,128C290,128 310,136 327,151C344,166 353,186 354,209l0,291l136,0M303,683C303,702 310,718 323,731C336,744 351,750 370,750C389,750 406,744 419,731C432,718 438,702 438,683C438,664 432,649 419,636C406,623 389,616 370,616C351,616 336,623 323,636C310,649 303,664 303,683M97,683C97,702 104,718 117,731C130,744 146,750 165,750C184,750 200,744 213,731C226,718 232,702 232,683C232,664 226,649 213,636C200,623 184,616 165,616C146,616 130,623 117,636C104,649 97,664 97,683z"
       id="glyph347" /><glyph
       unicode="û"
       horiz-adv-x="535"
       d="M490,-1l-122,20C353,9 337,2 320,-2C302,-6 284,-8 267,-8C196,-8 142,11 103,50C64,88 44,142 44,213l0,287l136,0l0,-285C180,191 189,171 206,154C223,137 243,128 267,128C290,128 310,136 327,151C344,166 353,186 354,209l0,291l136,0M266,764l153,-64l-64,-97l-89,39l-87,-33l-63,97z"
       id="glyph349" /><glyph
       unicode="Û"
       horiz-adv-x="607"
       d="M56,749l143,0l0,-516C199,218 202,205 209,194C216,182 224,172 235,164C245,155 256,149 269,145C282,140 294,138 306,138C319,138 332,140 345,145C357,150 368,156 377,165C386,173 394,183 400,194C405,205 408,216 408,229l0,520l143,0l0,-536C551,181 544,152 531,125C517,98 499,75 476,56C453,37 427,22 398,11C369,0 338,-5 306,-5C274,-5 243,0 213,11C183,22 156,37 133,56C110,75 91,98 77,125C63,152 56,181 56,213M302,964l153,-64l-64,-97l-89,39l-87,-33l-63,97z"
       id="glyph351" /><glyph
       unicode="Ú"
       horiz-adv-x="607"
       d="M56,749l143,0l0,-516C199,218 202,205 209,194C216,182 224,172 235,164C245,155 256,149 269,145C282,140 294,138 306,138C319,138 332,140 345,145C357,150 368,156 377,165C386,173 394,183 400,194C405,205 408,216 408,229l0,520l143,0l0,-536C551,181 544,152 531,125C517,98 499,75 476,56C453,37 427,22 398,11C369,0 338,-5 306,-5C274,-5 243,0 213,11C183,22 156,37 133,56C110,75 91,98 77,125C63,152 56,181 56,213M372,966l48,-106l-172,-70l-62,97z"
       id="glyph353" /><glyph
       unicode="ú"
       horiz-adv-x="535"
       d="M490,-1l-122,20C353,9 337,2 320,-2C302,-6 284,-8 267,-8C196,-8 142,11 103,50C64,88 44,142 44,213l0,287l136,0l0,-285C180,191 189,171 206,154C223,137 243,128 267,128C290,128 310,136 327,151C344,166 353,186 354,209l0,291l136,0M336,766l48,-106l-172,-70l-62,97z"
       id="glyph355" /><glyph
       unicode="ù"
       horiz-adv-x="535"
       d="M490,-1l-122,20C353,9 337,2 320,-2C302,-6 284,-8 267,-8C196,-8 142,11 103,50C64,88 44,142 44,213l0,287l136,0l0,-285C180,191 189,171 206,154C223,137 243,128 267,128C290,128 310,136 327,151C344,166 353,186 354,209l0,291l136,0M384,687l-62,-97l-172,70l48,106z"
       id="glyph357" /><glyph
       unicode="Ù"
       horiz-adv-x="607"
       d="M56,749l143,0l0,-516C199,218 202,205 209,194C216,182 224,172 235,164C245,155 256,149 269,145C282,140 294,138 306,138C319,138 332,140 345,145C357,150 368,156 377,165C386,173 394,183 400,194C405,205 408,216 408,229l0,520l143,0l0,-536C551,181 544,152 531,125C517,98 499,75 476,56C453,37 427,22 398,11C369,0 338,-5 306,-5C274,-5 243,0 213,11C183,22 156,37 133,56C110,75 91,98 77,125C63,152 56,181 56,213M420,887l-62,-97l-172,70l48,106z"
       id="glyph359" /><glyph
       unicode="Ö"
       horiz-adv-x="876"
       d="M55,375C55,428 65,477 85,524C105,571 132,611 167,646C202,681 242,708 289,728C335,748 385,758 438,758C491,758 540,748 587,728C634,708 674,681 709,646C744,611 771,571 791,524C811,477 821,428 821,375C821,322 811,272 791,226C771,179 744,139 709,104C674,69 634,42 587,22C540,2 491,-8 438,-8C385,-8 335,2 289,22C242,42 202,69 167,104C132,139 105,179 85,226C65,272 55,322 55,375M198,375C198,342 204,311 217,282C230,253 247,227 269,206C290,184 316,167 345,154C374,141 405,135 438,135C471,135 503,141 532,154C561,167 586,184 608,206C629,227 646,253 659,282C672,311 678,342 678,375C678,408 672,440 659,469C646,498 629,523 608,545C586,566 561,583 532,596C503,609 471,615 438,615C405,615 374,609 345,596C316,583 290,566 269,545C247,523 230,498 217,469C204,440 198,408 198,375M473,883C473,902 480,918 493,931C506,944 521,950 540,950C559,950 576,944 589,931C602,918 608,902 608,883C608,864 602,849 589,836C576,823 559,816 540,816C521,816 506,823 493,836C480,849 473,864 473,883M267,883C267,902 274,918 287,931C300,944 316,950 335,950C354,950 370,944 383,931C396,918 402,902 402,883C402,864 396,849 383,836C370,823 354,816 335,816C316,816 300,823 287,836C274,849 267,864 267,883z"
       id="glyph361" /><glyph
       unicode="ö"
       horiz-adv-x="582"
       d="M172,251C172,234 175,218 182,203C188,188 197,176 208,165C219,154 231,145 246,139C261,132 277,129 294,129C311,129 326,132 341,139C356,145 369,154 380,165C391,176 399,188 406,203C412,218 415,234 415,251C415,268 412,283 406,298C399,313 391,326 380,337C369,348 356,356 341,363C326,369 311,372 294,372C277,372 261,369 246,363C231,356 219,348 208,337C197,326 188,313 182,298C175,283 172,268 172,251M35,251C35,286 42,320 55,351C68,382 87,410 111,433C134,456 162,475 193,488C224,501 258,508 294,508C329,508 363,501 394,488C425,475 453,456 476,433C499,410 518,382 531,351C544,320 551,286 551,251C551,215 544,181 531,150C518,119 499,91 476,68C453,44 425,25 394,12C363,-1 329,-8 294,-8C258,-8 224,-1 193,12C162,25 134,44 111,68C87,91 68,119 55,150C42,181 35,215 35,251M326,683C326,702 333,718 346,731C359,744 374,750 393,750C412,750 429,744 442,731C455,718 461,702 461,683C461,664 455,649 442,636C429,623 412,616 393,616C374,616 359,623 346,636C333,649 326,664 326,683M120,683C120,702 127,718 140,731C153,744 169,750 188,750C207,750 223,744 236,731C249,718 255,702 255,683C255,664 249,649 236,636C223,623 207,616 188,616C169,616 153,623 140,636C127,649 120,664 120,683z"
       id="glyph363" /><glyph
       unicode="õ"
       horiz-adv-x="582"
       d="M172,251C172,234 175,218 182,203C188,188 197,176 208,165C219,154 231,145 246,139C261,132 277,129 294,129C311,129 326,132 341,139C356,145 369,154 380,165C391,176 399,188 406,203C412,218 415,234 415,251C415,268 412,283 406,298C399,313 391,326 380,337C369,348 356,356 341,363C326,369 311,372 294,372C277,372 261,369 246,363C231,356 219,348 208,337C197,326 188,313 182,298C175,283 172,268 172,251M35,251C35,286 42,320 55,351C68,382 87,410 111,433C134,456 162,475 193,488C224,501 258,508 294,508C329,508 363,501 394,488C425,475 453,456 476,433C499,410 518,382 531,351C544,320 551,286 551,251C551,215 544,181 531,150C518,119 499,91 476,68C453,44 425,25 394,12C363,-1 329,-8 294,-8C258,-8 224,-1 193,12C162,25 134,44 111,68C87,91 68,119 55,150C42,181 35,215 35,251M125,725C128,726 133,729 139,732C145,735 152,739 161,742C169,745 178,748 188,751C198,753 209,754 220,754C231,754 243,753 255,750C266,747 277,745 288,742C299,739 309,736 319,733C328,730 337,729 344,729C356,729 369,731 382,735C395,739 408,744 419,749C432,755 444,762 457,770l0,-109C453,658 448,655 442,650C436,645 429,640 421,635C413,630 404,625 394,621C383,617 372,615 359,615C349,615 338,616 327,619C315,622 303,625 291,628C279,631 267,634 256,637C244,640 233,641 223,641C204,641 188,639 175,635C162,631 152,627 145,622C136,617 129,611 124,604z"
       id="glyph365" /><glyph
       unicode="Õ"
       horiz-adv-x="876"
       d="M55,375C55,428 65,477 85,524C105,571 132,611 167,646C202,681 242,708 289,728C335,748 385,758 438,758C491,758 540,748 587,728C634,708 674,681 709,646C744,611 771,571 791,524C811,477 821,428 821,375C821,322 811,272 791,226C771,179 744,139 709,104C674,69 634,42 587,22C540,2 491,-8 438,-8C385,-8 335,2 289,22C242,42 202,69 167,104C132,139 105,179 85,226C65,272 55,322 55,375M198,375C198,342 204,311 217,282C230,253 247,227 269,206C290,184 316,167 345,154C374,141 405,135 438,135C471,135 503,141 532,154C561,167 586,184 608,206C629,227 646,253 659,282C672,311 678,342 678,375C678,408 672,440 659,469C646,498 629,523 608,545C586,566 561,583 532,596C503,609 471,615 438,615C405,615 374,609 345,596C316,583 290,566 269,545C247,523 230,498 217,469C204,440 198,408 198,375M272,925C275,926 280,929 286,932C292,935 299,939 308,942C316,945 325,948 335,951C345,953 356,954 367,954C378,954 390,953 402,950C413,947 424,945 435,942C446,939 456,936 466,933C475,930 484,929 491,929C503,929 516,931 529,935C542,939 555,944 566,949C579,955 591,962 604,970l0,-109C600,858 595,855 589,850C583,845 576,840 568,835C560,830 551,825 541,821C530,817 519,815 506,815C496,815 485,816 474,819C462,822 450,825 438,828C426,831 414,834 403,837C391,840 380,841 370,841C351,841 335,839 322,835C309,831 299,827 292,822C283,817 276,811 271,804z"
       id="glyph367" /><glyph
       unicode="Ô"
       horiz-adv-x="876"
       d="M55,375C55,428 65,477 85,524C105,571 132,611 167,646C202,681 242,708 289,728C335,748 385,758 438,758C491,758 540,748 587,728C634,708 674,681 709,646C744,611 771,571 791,524C811,477 821,428 821,375C821,322 811,272 791,226C771,179 744,139 709,104C674,69 634,42 587,22C540,2 491,-8 438,-8C385,-8 335,2 289,22C242,42 202,69 167,104C132,139 105,179 85,226C65,272 55,322 55,375M198,375C198,342 204,311 217,282C230,253 247,227 269,206C290,184 316,167 345,154C374,141 405,135 438,135C471,135 503,141 532,154C561,167 586,184 608,206C629,227 646,253 659,282C672,311 678,342 678,375C678,408 672,440 659,469C646,498 629,523 608,545C586,566 561,583 532,596C503,609 471,615 438,615C405,615 374,609 345,596C316,583 290,566 269,545C247,523 230,498 217,469C204,440 198,408 198,375M436,964l153,-64l-64,-97l-89,39l-87,-33l-63,97z"
       id="glyph369" /><glyph
       unicode="ô"
       horiz-adv-x="582"
       d="M172,251C172,234 175,218 182,203C188,188 197,176 208,165C219,154 231,145 246,139C261,132 277,129 294,129C311,129 326,132 341,139C356,145 369,154 380,165C391,176 399,188 406,203C412,218 415,234 415,251C415,268 412,283 406,298C399,313 391,326 380,337C369,348 356,356 341,363C326,369 311,372 294,372C277,372 261,369 246,363C231,356 219,348 208,337C197,326 188,313 182,298C175,283 172,268 172,251M35,251C35,286 42,320 55,351C68,382 87,410 111,433C134,456 162,475 193,488C224,501 258,508 294,508C329,508 363,501 394,488C425,475 453,456 476,433C499,410 518,382 531,351C544,320 551,286 551,251C551,215 544,181 531,150C518,119 499,91 476,68C453,44 425,25 394,12C363,-1 329,-8 294,-8C258,-8 224,-1 193,12C162,25 134,44 111,68C87,91 68,119 55,150C42,181 35,215 35,251M289,764l153,-64l-64,-97l-89,39l-87,-33l-63,97z"
       id="glyph371" /><glyph
       unicode="ó"
       horiz-adv-x="582"
       d="M172,251C172,234 175,218 182,203C188,188 197,176 208,165C219,154 231,145 246,139C261,132 277,129 294,129C311,129 326,132 341,139C356,145 369,154 380,165C391,176 399,188 406,203C412,218 415,234 415,251C415,268 412,283 406,298C399,313 391,326 380,337C369,348 356,356 341,363C326,369 311,372 294,372C277,372 261,369 246,363C231,356 219,348 208,337C197,326 188,313 182,298C175,283 172,268 172,251M35,251C35,286 42,320 55,351C68,382 87,410 111,433C134,456 162,475 193,488C224,501 258,508 294,508C329,508 363,501 394,488C425,475 453,456 476,433C499,410 518,382 531,351C544,320 551,286 551,251C551,215 544,181 531,150C518,119 499,91 476,68C453,44 425,25 394,12C363,-1 329,-8 294,-8C258,-8 224,-1 193,12C162,25 134,44 111,68C87,91 68,119 55,150C42,181 35,215 35,251M360,766l48,-106l-172,-70l-62,97z"
       id="glyph373" /><glyph
       unicode="Ó"
       horiz-adv-x="876"
       d="M55,375C55,428 65,477 85,524C105,571 132,611 167,646C202,681 242,708 289,728C335,748 385,758 438,758C491,758 540,748 587,728C634,708 674,681 709,646C744,611 771,571 791,524C811,477 821,428 821,375C821,322 811,272 791,226C771,179 744,139 709,104C674,69 634,42 587,22C540,2 491,-8 438,-8C385,-8 335,2 289,22C242,42 202,69 167,104C132,139 105,179 85,226C65,272 55,322 55,375M198,375C198,342 204,311 217,282C230,253 247,227 269,206C290,184 316,167 345,154C374,141 405,135 438,135C471,135 503,141 532,154C561,167 586,184 608,206C629,227 646,253 659,282C672,311 678,342 678,375C678,408 672,440 659,469C646,498 629,523 608,545C586,566 561,583 532,596C503,609 471,615 438,615C405,615 374,609 345,596C316,583 290,566 269,545C247,523 230,498 217,469C204,440 198,408 198,375M507,966l48,-106l-172,-70l-62,97z"
       id="glyph375" /><glyph
       unicode="Ò"
       horiz-adv-x="876"
       d="M55,375C55,428 65,477 85,524C105,571 132,611 167,646C202,681 242,708 289,728C335,748 385,758 438,758C491,758 540,748 587,728C634,708 674,681 709,646C744,611 771,571 791,524C811,477 821,428 821,375C821,322 811,272 791,226C771,179 744,139 709,104C674,69 634,42 587,22C540,2 491,-8 438,-8C385,-8 335,2 289,22C242,42 202,69 167,104C132,139 105,179 85,226C65,272 55,322 55,375M198,375C198,342 204,311 217,282C230,253 247,227 269,206C290,184 316,167 345,154C374,141 405,135 438,135C471,135 503,141 532,154C561,167 586,184 608,206C629,227 646,253 659,282C672,311 678,342 678,375C678,408 672,440 659,469C646,498 629,523 608,545C586,566 561,583 532,596C503,609 471,615 438,615C405,615 374,609 345,596C316,583 290,566 269,545C247,523 230,498 217,469C204,440 198,408 198,375M555,887l-62,-97l-172,70l48,106z"
       id="glyph377" /><glyph
       unicode="ò"
       horiz-adv-x="582"
       d="M172,251C172,234 175,218 182,203C188,188 197,176 208,165C219,154 231,145 246,139C261,132 277,129 294,129C311,129 326,132 341,139C356,145 369,154 380,165C391,176 399,188 406,203C412,218 415,234 415,251C415,268 412,283 406,298C399,313 391,326 380,337C369,348 356,356 341,363C326,369 311,372 294,372C277,372 261,369 246,363C231,356 219,348 208,337C197,326 188,313 182,298C175,283 172,268 172,251M35,251C35,286 42,320 55,351C68,382 87,410 111,433C134,456 162,475 193,488C224,501 258,508 294,508C329,508 363,501 394,488C425,475 453,456 476,433C499,410 518,382 531,351C544,320 551,286 551,251C551,215 544,181 531,150C518,119 499,91 476,68C453,44 425,25 394,12C363,-1 329,-8 294,-8C258,-8 224,-1 193,12C162,25 134,44 111,68C87,91 68,119 55,150C42,181 35,215 35,251M408,687l-62,-97l-172,70l48,106z"
       id="glyph379" /><glyph
       unicode="ñ"
       horiz-adv-x="533"
       d="M44,500l122,-19C181,491 197,498 215,502C232,506 250,508 267,508C338,508 393,489 432,451C471,412 490,358 490,287l0,-287l-136,0l0,285C354,309 346,330 329,347C312,364 291,372 267,372C244,372 224,364 207,349C190,334 181,314 180,291l0,-291l-136,0M101,725C104,726 109,729 115,732C121,735 128,739 137,742C145,745 154,748 164,751C174,753 185,754 196,754C207,754 219,753 231,750C242,747 253,745 264,742C275,739 285,736 295,733C304,730 313,729 320,729C332,729 345,731 358,735C371,739 384,744 395,749C408,755 420,762 433,770l0,-109C429,658 424,655 418,650C412,645 405,640 397,635C389,630 380,625 370,621C359,617 348,615 335,615C325,615 314,616 303,619C291,622 279,625 267,628C255,631 243,634 232,637C220,640 209,641 199,641C180,641 164,639 151,635C138,631 128,627 121,622C112,617 105,611 100,604z"
       id="glyph381" /><glyph
       unicode="Ñ"
       horiz-adv-x="711"
       d="M191,750l320,-475l0,116l0,358l143,0l0,-749l-133,0l-321,475l0,-116l0,-359l-143,0l0,749M190,925C193,926 198,929 204,932C210,935 217,939 226,942C234,945 243,948 253,951C263,953 274,954 285,954C296,954 308,953 320,950C331,947 342,945 353,942C364,939 374,936 384,933C393,930 402,929 409,929C421,929 434,931 447,935C460,939 473,944 484,949C497,955 509,962 522,970l0,-109C518,858 513,855 507,850C501,845 494,840 486,835C478,830 469,825 459,821C448,817 437,815 424,815C414,815 403,816 392,819C380,822 368,825 356,828C344,831 332,834 321,837C309,840 298,841 288,841C269,841 253,839 240,835C227,831 217,827 210,822C201,817 194,811 189,804z"
       id="glyph383" /><glyph
       unicode="Ï"
       horiz-adv-x="257"
       d="M200,750l0,-750l-143,0l0,750M166,883C166,902 173,918 186,931C199,944 214,950 233,950C252,950 269,944 282,931C295,918 301,902 301,883C301,864 295,849 282,836C269,823 252,816 233,816C214,816 199,823 186,836C173,849 166,864 166,883M-40,883C-40,902 -33,918 -20,931C-7,944 9,950 28,950C47,950 63,944 76,931C89,918 95,902 95,883C95,864 89,849 76,836C63,823 47,816 28,816C9,816 -7,823 -20,836C-33,849 -40,864 -40,883z"
       id="glyph385" /><glyph
       unicode="ï"
       horiz-adv-x="210"
       d="M45,500l121,0l0,-500l-121,0M143,683C143,702 150,718 163,731C176,744 191,750 210,750C229,750 246,744 259,731C272,718 278,702 278,683C278,664 272,649 259,636C246,623 229,616 210,616C191,616 176,623 163,636C150,649 143,664 143,683M-63,683C-63,702 -56,718 -43,731C-30,744 -14,750 5,750C24,750 40,744 53,731C66,718 72,702 72,683C72,664 66,649 53,636C40,623 24,616 5,616C-14,616 -30,623 -43,636C-56,649 -63,664 -63,683z"
       id="glyph387" /><glyph
       unicode="î"
       horiz-adv-x="210"
       d="M45,500l121,0l0,-500l-121,0M106,764l153,-64l-64,-97l-89,39l-87,-33l-63,97z"
       id="glyph389" /><glyph
       unicode="Î"
       horiz-adv-x="257"
       d="M200,750l0,-750l-143,0l0,750M129,964l153,-64l-64,-97l-89,39l-87,-33l-63,97z"
       id="glyph391" /><glyph
       unicode="Í"
       horiz-adv-x="257"
       d="M200,750l0,-750l-143,0l0,750M200,966l48,-106l-172,-70l-62,97z"
       id="glyph393" /><glyph
       unicode="í"
       horiz-adv-x="210"
       d="M45,500l121,0l0,-500l-121,0M176,766l48,-106l-172,-70l-62,97z"
       id="glyph395" /><glyph
       unicode="ì"
       horiz-adv-x="210"
       d="M45,500l121,0l0,-500l-121,0M224,687l-62,-97l-172,70l48,106z"
       id="glyph397" /><glyph
       unicode="Ì"
       horiz-adv-x="257"
       d="M200,750l0,-750l-143,0l0,750M248,887l-62,-97l-172,70l48,106z"
       id="glyph399" /><glyph
       unicode="Ë"
       horiz-adv-x="527"
       d="M200,149C200,145 202,143 206,143l263,0l0,-143l-412,0l0,750l412,0l0,-143l-263,0C202,607 200,605 200,601l0,-147C200,450 202,448 206,448l263,0l0,-143l-263,0C202,305 200,303 200,299M299,883C299,902 306,918 319,931C332,944 347,950 366,950C385,950 402,944 415,931C428,918 434,902 434,883C434,864 428,849 415,836C402,823 385,816 366,816C347,816 332,823 319,836C306,849 299,864 299,883M93,883C93,902 100,918 113,931C126,944 142,950 161,950C180,950 196,944 209,931C222,918 228,902 228,883C228,864 222,849 209,836C196,823 180,816 161,816C142,816 126,823 113,836C100,849 93,864 93,883z"
       id="glyph401" /><glyph
       unicode="ë"
       horiz-adv-x="533"
       d="M287,119C318,119 346,124 369,133C392,142 412,151 429,160l7,3l45,-100C469,51 455,41 439,32C423,23 407,15 390,10C373,4 355,0 338,-3C320,-6 303,-8 287,-8C251,-8 217,-1 186,12C155,25 127,44 104,68C80,91 61,119 48,150C35,181 28,215 28,251C28,286 35,320 48,351C61,382 80,410 103,433C126,456 154,474 185,487C216,500 250,507 285,507C324,507 357,500 385,485C413,470 436,450 454,427C472,404 485,378 494,350C503,321 507,293 507,266C507,245 504,224 499,204l-320,0C177,204 176,202 176,199C185,178 200,159 220,143C239,127 262,119 287,119M284,372C261,372 240,366 222,355C203,344 189,329 179,310C179,309 179,309 179,309C178,308 178,308 178,307C178,305 179,304 182,304l178,0C363,304 364,305 364,306C364,323 357,338 342,352C327,365 307,372 284,372M302,683C302,702 309,718 322,731C335,744 350,750 369,750C388,750 405,744 418,731C431,718 437,702 437,683C437,664 431,649 418,636C405,623 388,616 369,616C350,616 335,623 322,636C309,649 302,664 302,683M96,683C96,702 103,718 116,731C129,744 145,750 164,750C183,750 199,744 212,731C225,718 231,702 231,683C231,664 225,649 212,636C199,623 183,616 164,616C145,616 129,623 116,636C103,649 96,664 96,683z"
       id="glyph403" /><glyph
       unicode="ê"
       horiz-adv-x="533"
       d="M287,119C318,119 346,124 369,133C392,142 412,151 429,160l7,3l45,-100C469,51 455,41 439,32C423,23 407,15 390,10C373,4 355,0 338,-3C320,-6 303,-8 287,-8C251,-8 217,-1 186,12C155,25 127,44 104,68C80,91 61,119 48,150C35,181 28,215 28,251C28,286 35,320 48,351C61,382 80,410 103,433C126,456 154,474 185,487C216,500 250,507 285,507C324,507 357,500 385,485C413,470 436,450 454,427C472,404 485,378 494,350C503,321 507,293 507,266C507,245 504,224 499,204l-320,0C177,204 176,202 176,199C185,178 200,159 220,143C239,127 262,119 287,119M284,372C261,372 240,366 222,355C203,344 189,329 179,310C179,309 179,309 179,309C178,308 178,308 178,307C178,305 179,304 182,304l178,0C363,304 364,305 364,306C364,323 357,338 342,352C327,365 307,372 284,372M265,764l153,-64l-64,-97l-89,39l-87,-33l-63,97z"
       id="glyph405" /><glyph
       unicode="Ê"
       horiz-adv-x="527"
       d="M200,149C200,145 202,143 206,143l263,0l0,-143l-412,0l0,750l412,0l0,-143l-263,0C202,607 200,605 200,601l0,-147C200,450 202,448 206,448l263,0l0,-143l-263,0C202,305 200,303 200,299M262,964l153,-64l-64,-97l-89,39l-87,-33l-63,97z"
       id="glyph407" /><glyph
       unicode="É"
       horiz-adv-x="527"
       d="M200,149C200,145 202,143 206,143l263,0l0,-143l-412,0l0,750l412,0l0,-143l-263,0C202,607 200,605 200,601l0,-147C200,450 202,448 206,448l263,0l0,-143l-263,0C202,305 200,303 200,299M332,966l48,-106l-172,-70l-62,97z"
       id="glyph409" /><glyph
       unicode="é"
       horiz-adv-x="533"
       d="M287,119C318,119 346,124 369,133C392,142 412,151 429,160l7,3l45,-100C469,51 455,41 439,32C423,23 407,15 390,10C373,4 355,0 338,-3C320,-6 303,-8 287,-8C251,-8 217,-1 186,12C155,25 127,44 104,68C80,91 61,119 48,150C35,181 28,215 28,251C28,286 35,320 48,351C61,382 80,410 103,433C126,456 154,474 185,487C216,500 250,507 285,507C324,507 357,500 385,485C413,470 436,450 454,427C472,404 485,378 494,350C503,321 507,293 507,266C507,245 504,224 499,204l-320,0C177,204 176,202 176,199C185,178 200,159 220,143C239,127 262,119 287,119M284,372C261,372 240,366 222,355C203,344 189,329 179,310C179,309 179,309 179,309C178,308 178,308 178,307C178,305 179,304 182,304l178,0C363,304 364,305 364,306C364,323 357,338 342,352C327,365 307,372 284,372M335,766l48,-106l-172,-70l-62,97z"
       id="glyph411" /><glyph
       unicode="è"
       horiz-adv-x="533"
       d="M287,119C318,119 346,124 369,133C392,142 412,151 429,160l7,3l45,-100C469,51 455,41 439,32C423,23 407,15 390,10C373,4 355,0 338,-3C320,-6 303,-8 287,-8C251,-8 217,-1 186,12C155,25 127,44 104,68C80,91 61,119 48,150C35,181 28,215 28,251C28,286 35,320 48,351C61,382 80,410 103,433C126,456 154,474 185,487C216,500 250,507 285,507C324,507 357,500 385,485C413,470 436,450 454,427C472,404 485,378 494,350C503,321 507,293 507,266C507,245 504,224 499,204l-320,0C177,204 176,202 176,199C185,178 200,159 220,143C239,127 262,119 287,119M284,372C261,372 240,366 222,355C203,344 189,329 179,310C179,309 179,309 179,309C178,308 178,308 178,307C178,305 179,304 182,304l178,0C363,304 364,305 364,306C364,323 357,338 342,352C327,365 307,372 284,372M383,687l-62,-97l-172,70l48,106z"
       id="glyph413" /><glyph
       unicode="È"
       horiz-adv-x="527"
       d="M200,149C200,145 202,143 206,143l263,0l0,-143l-412,0l0,750l412,0l0,-143l-263,0C202,607 200,605 200,601l0,-147C200,450 202,448 206,448l263,0l0,-143l-263,0C202,305 200,303 200,299M380,887l-62,-97l-172,70l48,106z"
       id="glyph415" /><glyph
       unicode="æ"
       horiz-adv-x="926"
       d="M161,250C161,233 164,216 171,201C177,186 186,173 197,162C208,151 221,142 236,136C251,129 267,126 284,126C301,126 318,129 333,136C348,142 361,151 372,162C383,173 391,186 398,201C404,216 407,233 407,250C407,267 404,284 398,299C391,314 383,328 372,339C361,350 348,358 333,365C318,371 301,374 284,374C267,374 251,371 236,365C221,358 208,350 197,339C186,328 177,314 171,299C164,284 161,267 161,250M26,250C26,285 33,319 47,350C60,381 79,409 102,432C125,455 153,474 184,488C215,501 249,508 284,508C309,508 332,505 355,498C378,491 399,482 418,470l1,30l124,0l0,-500l-126,0l1,29C378,4 333,-8 284,-8C249,-8 215,-1 184,13C153,26 125,45 102,68C79,91 60,119 47,150C33,181 26,215 26,250M666,119C697,119 725,124 748,133C771,142 791,151 808,160l7,3l45,-100C848,51 834,41 818,32C802,23 786,15 769,10C752,4 734,0 717,-3C699,-6 682,-8 666,-8C630,-8 596,-1 565,12C534,25 506,44 483,68C459,91 440,119 427,150C414,181 407,215 407,251C407,286 414,320 427,351C440,382 459,410 482,433C505,456 533,474 564,487C595,500 629,507 664,507C703,507 736,500 764,485C792,470 815,450 833,427C851,404 864,378 873,350C882,321 886,293 886,266C886,245 883,224 878,204l-320,0C556,204 555,202 555,199C564,178 579,159 599,143C618,127 641,119 666,119M663,372C640,372 619,366 601,355C582,344 568,329 558,310C558,309 558,309 558,309C557,308 557,308 557,307C557,305 558,304 561,304l178,0C742,304 743,305 743,306C743,323 736,338 721,352C706,365 686,372 663,372z"
       id="glyph417" /><glyph
       unicode="Æ"
       horiz-adv-x="932"
       d="M614,149C614,145 616,143 620,143l263,0l0,-143l-412,0l0,140l-217,0C250,140 247,138 246,135l-71,-135l-154,0l367,750l495,0l0,-143l-263,0C616,607 614,605 614,601l0,-147C614,450 616,448 620,448l263,0l0,-143l-263,0C616,305 614,303 614,299M471,606C470,606 469,605 469,604C468,603 468,603 468,602l-159,-322C308,279 308,278 308,276C308,274 309,273 312,273l159,0z"
       id="glyph419" /><glyph
       unicode="Å"
       horiz-adv-x="750"
       d="M577,0l-59,135C517,138 514,140 510,140l-271,0C235,140 232,138 231,135l-56,-135l-154,0l299,750l109,0l301,-750M375,495C374,495 373,494 373,493C372,492 372,492 372,491l-84,-211C287,279 287,278 287,276C287,274 288,273 291,273l167,0C461,273 462,274 462,277C462,278 462,279 461,280l-83,211C377,492 377,492 377,493C376,494 375,495 375,495M276,878C276,906 286,930 305,949C324,968 347,977 375,977C403,977 427,968 446,949C465,930 474,906 474,878C474,850 465,827 446,808C427,789 403,779 375,779C347,779 324,789 305,808C286,827 276,850 276,878M311,878C311,861 317,846 330,833C343,820 358,814 375,814C392,814 407,820 420,833C433,846 439,861 439,878C439,895 433,910 420,923C407,936 392,942 375,942C358,942 343,936 330,923C317,910 311,895 311,878z"
       id="glyph421" /><glyph
       unicode="å"
       horiz-adv-x="587"
       d="M161,250C161,233 164,216 171,201C177,186 186,173 197,162C208,151 221,142 236,136C251,129 267,126 284,126C301,126 318,129 333,136C348,142 361,151 372,162C383,173 391,186 398,201C404,216 407,233 407,250C407,267 404,284 398,299C391,314 383,328 372,339C361,350 348,358 333,365C318,371 301,374 284,374C267,374 251,371 236,365C221,358 208,350 197,339C186,328 177,314 171,299C164,284 161,267 161,250M26,250C26,285 33,319 47,350C60,381 79,409 102,432C125,455 153,474 184,488C215,501 249,508 284,508C309,508 332,505 355,498C378,491 399,482 418,470l1,30l124,0l0,-501l-125,30C378,4 333,-8 284,-8C249,-8 215,-1 184,13C153,26 125,45 102,68C79,91 60,119 47,150C33,181 26,215 26,250M194,678C194,706 204,730 223,749C242,768 265,777 293,777C321,777 345,768 364,749C383,730 392,706 392,678C392,650 383,627 364,608C345,589 321,579 293,579C265,579 242,589 223,608C204,627 194,650 194,678M229,678C229,661 235,646 248,633C261,620 276,614 293,614C310,614 325,620 338,633C351,646 357,661 357,678C357,695 351,710 338,723C325,736 310,742 293,742C276,742 261,736 248,723C235,710 229,695 229,678z"
       id="glyph423" /><glyph
       unicode="ä"
       horiz-adv-x="587"
       d="M161,250C161,233 164,216 171,201C177,186 186,173 197,162C208,151 221,142 236,136C251,129 267,126 284,126C301,126 318,129 333,136C348,142 361,151 372,162C383,173 391,186 398,201C404,216 407,233 407,250C407,267 404,284 398,299C391,314 383,328 372,339C361,350 348,358 333,365C318,371 301,374 284,374C267,374 251,371 236,365C221,358 208,350 197,339C186,328 177,314 171,299C164,284 161,267 161,250M26,250C26,285 33,319 47,350C60,381 79,409 102,432C125,455 153,474 184,488C215,501 249,508 284,508C309,508 332,505 355,498C378,491 399,482 418,470l1,30l124,0l0,-501l-125,30C378,4 333,-8 284,-8C249,-8 215,-1 184,13C153,26 125,45 102,68C79,91 60,119 47,150C33,181 26,215 26,250M329,683C329,702 336,718 349,731C362,744 377,750 396,750C415,750 432,744 445,731C458,718 464,702 464,683C464,664 458,649 445,636C432,623 415,616 396,616C377,616 362,623 349,636C336,649 329,664 329,683M123,683C123,702 130,718 143,731C156,744 172,750 191,750C210,750 226,744 239,731C252,718 258,702 258,683C258,664 252,649 239,636C226,623 210,616 191,616C172,616 156,623 143,636C130,649 123,664 123,683z"
       id="glyph425" /><glyph
       unicode="Ä"
       horiz-adv-x="750"
       d="M577,0l-59,135C517,138 514,140 510,140l-271,0C235,140 232,138 231,135l-56,-135l-154,0l299,750l109,0l301,-750M375,495C374,495 373,494 373,493C372,492 372,492 372,491l-84,-211C287,279 287,278 287,276C287,274 288,273 291,273l167,0C461,273 462,274 462,277C462,278 462,279 461,280l-83,211C377,492 377,492 377,493C376,494 375,495 375,495M410,883C410,902 417,918 430,931C443,944 458,950 477,950C496,950 513,944 526,931C539,918 545,902 545,883C545,864 539,849 526,836C513,823 496,816 477,816C458,816 443,823 430,836C417,849 410,864 410,883M204,883C204,902 211,918 224,931C237,944 253,950 272,950C291,950 307,944 320,931C333,918 339,902 339,883C339,864 333,849 320,836C307,823 291,816 272,816C253,816 237,823 224,836C211,849 204,864 204,883z"
       id="glyph427" /><glyph
       unicode="Ã"
       horiz-adv-x="750"
       d="M577,0l-59,135C517,138 514,140 510,140l-271,0C235,140 232,138 231,135l-56,-135l-154,0l299,750l109,0l301,-750M375,495C374,495 373,494 373,493C372,492 372,492 372,491l-84,-211C287,279 287,278 287,276C287,274 288,273 291,273l167,0C461,273 462,274 462,277C462,278 462,279 461,280l-83,211C377,492 377,492 377,493C376,494 375,495 375,495M209,925C212,926 217,929 223,932C229,935 236,939 245,942C253,945 262,948 272,951C282,953 293,954 304,954C315,954 327,953 339,950C350,947 361,945 372,942C383,939 393,936 403,933C412,930 421,929 428,929C440,929 453,931 466,935C479,939 492,944 503,949C516,955 528,962 541,970l0,-109C537,858 532,855 526,850C520,845 513,840 505,835C497,830 488,825 478,821C467,817 456,815 443,815C433,815 422,816 411,819C399,822 387,825 375,828C363,831 351,834 340,837C328,840 317,841 307,841C288,841 272,839 259,835C246,831 236,827 229,822C220,817 213,811 208,804z"
       id="glyph429" /><glyph
       unicode="ã"
       horiz-adv-x="587"
       d="M161,250C161,233 164,216 171,201C177,186 186,173 197,162C208,151 221,142 236,136C251,129 267,126 284,126C301,126 318,129 333,136C348,142 361,151 372,162C383,173 391,186 398,201C404,216 407,233 407,250C407,267 404,284 398,299C391,314 383,328 372,339C361,350 348,358 333,365C318,371 301,374 284,374C267,374 251,371 236,365C221,358 208,350 197,339C186,328 177,314 171,299C164,284 161,267 161,250M26,250C26,285 33,319 47,350C60,381 79,409 102,432C125,455 153,474 184,488C215,501 249,508 284,508C309,508 332,505 355,498C378,491 399,482 418,470l1,30l124,0l0,-501l-125,30C378,4 333,-8 284,-8C249,-8 215,-1 184,13C153,26 125,45 102,68C79,91 60,119 47,150C33,181 26,215 26,250M128,725C131,726 136,729 142,732C148,735 155,739 164,742C172,745 181,748 191,751C201,753 212,754 223,754C234,754 246,753 258,750C269,747 280,745 291,742C302,739 312,736 322,733C331,730 340,729 347,729C359,729 372,731 385,735C398,739 411,744 422,749C435,755 447,762 460,770l0,-109C456,658 451,655 445,650C439,645 432,640 424,635C416,630 407,625 397,621C386,617 375,615 362,615C352,615 341,616 330,619C318,622 306,625 294,628C282,631 270,634 259,637C247,640 236,641 226,641C207,641 191,639 178,635C165,631 155,627 148,622C139,617 132,611 127,604z"
       id="glyph431" /><glyph
       unicode="â"
       horiz-adv-x="587"
       d="M161,250C161,233 164,216 171,201C177,186 186,173 197,162C208,151 221,142 236,136C251,129 267,126 284,126C301,126 318,129 333,136C348,142 361,151 372,162C383,173 391,186 398,201C404,216 407,233 407,250C407,267 404,284 398,299C391,314 383,328 372,339C361,350 348,358 333,365C318,371 301,374 284,374C267,374 251,371 236,365C221,358 208,350 197,339C186,328 177,314 171,299C164,284 161,267 161,250M26,250C26,285 33,319 47,350C60,381 79,409 102,432C125,455 153,474 184,488C215,501 249,508 284,508C309,508 332,505 355,498C378,491 399,482 418,470l1,30l124,0l0,-501l-125,30C378,4 333,-8 284,-8C249,-8 215,-1 184,13C153,26 125,45 102,68C79,91 60,119 47,150C33,181 26,215 26,250M292,764l153,-64l-64,-97l-89,39l-87,-33l-63,97z"
       id="glyph433" /><glyph
       unicode="Â"
       horiz-adv-x="750"
       d="M577,0l-59,135C517,138 514,140 510,140l-271,0C235,140 232,138 231,135l-56,-135l-154,0l299,750l109,0l301,-750M375,495C374,495 373,494 373,493C372,492 372,492 372,491l-84,-211C287,279 287,278 287,276C287,274 288,273 291,273l167,0C461,273 462,274 462,277C462,278 462,279 461,280l-83,211C377,492 377,492 377,493C376,494 375,495 375,495M373,964l153,-64l-64,-97l-89,39l-87,-33l-63,97z"
       id="glyph435" /><glyph
       unicode="á"
       horiz-adv-x="587"
       d="M161,250C161,233 164,216 171,201C177,186 186,173 197,162C208,151 221,142 236,136C251,129 267,126 284,126C301,126 318,129 333,136C348,142 361,151 372,162C383,173 391,186 398,201C404,216 407,233 407,250C407,267 404,284 398,299C391,314 383,328 372,339C361,350 348,358 333,365C318,371 301,374 284,374C267,374 251,371 236,365C221,358 208,350 197,339C186,328 177,314 171,299C164,284 161,267 161,250M26,250C26,285 33,319 47,350C60,381 79,409 102,432C125,455 153,474 184,488C215,501 249,508 284,508C309,508 332,505 355,498C378,491 399,482 418,470l1,30l124,0l0,-501l-125,30C378,4 333,-8 284,-8C249,-8 215,-1 184,13C153,26 125,45 102,68C79,91 60,119 47,150C33,181 26,215 26,250M362,766l48,-106l-172,-70l-62,97z"
       id="glyph437" /><glyph
       unicode="à"
       horiz-adv-x="587"
       d="M161,250C161,233 164,216 171,201C177,186 186,173 197,162C208,151 221,142 236,136C251,129 267,126 284,126C301,126 318,129 333,136C348,142 361,151 372,162C383,173 391,186 398,201C404,216 407,233 407,250C407,267 404,284 398,299C391,314 383,328 372,339C361,350 348,358 333,365C318,371 301,374 284,374C267,374 251,371 236,365C221,358 208,350 197,339C186,328 177,314 171,299C164,284 161,267 161,250M26,250C26,285 33,319 47,350C60,381 79,409 102,432C125,455 153,474 184,488C215,501 249,508 284,508C309,508 332,505 355,498C378,491 399,482 418,470l1,30l124,0l0,-501l-125,30C378,4 333,-8 284,-8C249,-8 215,-1 184,13C153,26 125,45 102,68C79,91 60,119 47,150C33,181 26,215 26,250M410,687l-62,-97l-172,70l48,106z"
       id="glyph439" /><glyph
       unicode="Ç"
       horiz-adv-x="713"
       d="M437,615C403,614 371,607 342,594C313,581 287,564 266,543C245,522 228,497 216,468C203,439 197,408 197,375C197,342 204,311 217,283C230,254 248,229 271,208C293,187 319,170 348,157C377,144 406,137 437,135C466,135 493,140 519,149C544,158 567,171 588,188l88,-114C673,71 665,65 654,56C642,47 626,38 606,29C586,19 562,10 534,3C506,-4 474,-8 437,-8C384,-8 334,2 288,22C241,42 201,69 166,104C131,139 104,179 84,226C64,272 54,322 54,375C54,428 64,477 84,524C104,571 131,611 166,646C201,681 241,708 288,728C334,748 384,758 437,758C474,758 506,754 534,747C562,740 586,731 606,722C626,712 642,703 654,694C665,685 673,679 676,676l-88,-114C567,579 544,592 519,601C493,610 466,615 437,615M397,0l-39,-51C361,-51 365,-50 369,-49C373,-48 377,-48 380,-48C401,-48 419,-55 434,-68C448,-81 455,-100 455,-124C455,-140 452,-154 445,-166C438,-178 429,-188 418,-195C407,-203 395,-209 382,-212C369,-216 356,-218 344,-218C340,-218 334,-218 326,-217C318,-216 310,-215 302,-213C293,-212 285,-210 277,-208C269,-206 263,-204 258,-201l0,63C265,-141 273,-143 280,-145C287,-147 294,-149 301,-150C308,-151 314,-152 321,-152l9,0C338,-152 345,-150 351,-146C356,-143 359,-135 359,-124C359,-111 356,-103 349,-100C342,-97 334,-96 325,-96l-57,0l69,96z"
       id="glyph441" /><glyph
       unicode="ç"
       horiz-adv-x="550"
       d="M294,508C316,508 338,505 359,499C380,493 399,485 418,475C436,464 453,452 468,439C483,425 496,410 506,395l-101,-75C399,325 393,331 386,338C379,344 372,350 364,355C355,360 346,364 335,367C324,370 311,372 296,372C279,372 263,369 248,363C233,356 221,348 210,337C199,326 190,313 184,298C177,283 174,268 174,251C174,234 177,218 184,203C190,188 199,176 210,165C221,154 233,145 248,139C263,132 279,129 296,129C319,129 339,135 356,146C373,157 389,173 404,194l119,-60C501,92 470,58 430,32C389,5 344,-8 294,-8C258,-8 224,-1 193,12C162,25 134,44 111,68C87,91 68,119 55,150C42,181 35,215 35,251C35,286 42,320 55,351C68,382 87,410 111,433C134,456 162,475 193,488C224,501 258,508 294,508M315,0l-39,-51C279,-51 283,-50 287,-49C291,-48 295,-48 298,-48C319,-48 337,-55 352,-68C366,-81 373,-100 373,-124C373,-140 370,-154 363,-166C356,-178 347,-188 336,-195C325,-203 313,-209 300,-212C287,-216 274,-218 262,-218C258,-218 252,-218 244,-217C236,-216 228,-215 220,-213C211,-212 203,-210 195,-208C187,-206 181,-204 176,-201l0,63C183,-141 191,-143 198,-145C205,-147 212,-149 219,-150C226,-151 232,-152 239,-152l9,0C256,-152 263,-150 269,-146C274,-143 277,-135 277,-124C277,-111 274,-103 267,-100C260,-97 252,-96 243,-96l-57,0l69,96z"
       id="glyph443" /><glyph
       unicode="¿"
       horiz-adv-x="450"
       d="M171,690C171,708 178,724 191,738C204,751 221,758 240,758C258,758 274,751 288,738C301,724 308,708 308,690C308,671 301,654 288,641C274,628 258,621 240,621C221,621 204,628 191,641C178,654 171,671 171,690M314,582C317,571 320,560 323,547C325,536 327,523 329,508C330,493 331,476 331,457C331,432 327,410 320,391C312,372 302,354 290,339C278,323 265,309 252,296C239,283 226,271 214,259C202,247 192,235 185,223C177,211 173,198 173,184C173,173 175,165 178,159C181,152 185,147 190,144C194,141 199,139 204,138C209,137 213,137 216,137C229,137 241,141 254,148C267,155 278,164 289,173C301,184 313,195 325,208l88,-90C396,95 376,75 354,57C335,42 314,28 290,15C265,2 239,-4 211,-4C154,-4 110,11 77,41C44,71 27,117 27,178C27,207 30,231 37,252C43,272 51,289 61,304C71,319 82,331 95,342C108,353 120,363 132,373C143,383 154,394 164,405C174,416 182,430 187,445C189,450 190,456 191,463C192,469 192,475 192,482C192,495 191,508 190,520C188,531 186,542 183,551C180,562 177,572 174,581z"
       id="glyph445" /><glyph
       unicode="¡"
       horiz-adv-x="226"
       d="M182,577l-136,0l0,-581l136,0M182,682C182,700 175,716 162,730C149,743 132,750 113,750C95,750 79,743 66,730C52,716 45,700 45,682C45,663 52,646 66,633C79,620 95,613 113,613C132,613 149,620 162,633C175,646 182,663 182,682z"
       id="glyph447" /><glyph
       unicode="ž"
       horiz-adv-x="427"
       d="M208,350C211,353 212,356 212,358C212,363 206,366 195,366l-156,0l0,134l349,0l0,-102C388,398 384,392 376,380C367,368 357,353 344,335C331,316 316,296 301,275C286,254 272,234 259,215C246,196 235,179 226,166C217,152 213,144 213,142C213,137 218,135 228,135l160,0l0,-135l-349,0l0,107C71,152 100,192 125,228C136,243 146,258 156,273C166,288 175,301 183,312C191,323 197,333 202,340C206,347 208,350 208,350M62,661l63,97l87,-33l89,39l64,-97l-153,-64z"
       id="glyph449" /><glyph
       unicode="Ž"
       horiz-adv-x="586"
       d="M352,590C354,594 355,597 355,599C355,604 349,607 338,607l-282,0l0,143l472,0l0,-111C528,639 524,632 516,619C507,605 496,587 482,565C468,542 452,517 435,489C417,460 399,431 380,401C361,371 343,341 325,312C307,283 291,257 277,234C263,211 252,192 243,177C234,162 230,153 230,151C230,146 236,143 247,143l281,0l0,-143l-472,0l0,110C112,199 162,279 205,350C224,380 242,409 260,438C277,467 293,492 307,515C320,538 331,556 340,570C348,583 352,590 352,590M141,861l63,97l87,-33l89,39l64,-97l-153,-64z"
       id="glyph451" /><glyph
       unicode="œ"
       horiz-adv-x="924"
       d="M172,251C172,234 175,218 182,203C188,188 197,176 208,165C219,154 231,145 246,139C261,132 277,129 294,129C311,129 326,132 341,139C356,145 369,154 380,165C391,176 399,188 406,203C412,218 415,234 415,251C415,268 412,283 406,298C399,313 391,326 380,337C369,348 356,356 341,363C326,369 311,372 294,372C277,372 261,369 246,363C231,356 219,348 208,337C197,326 188,313 182,298C175,283 172,268 172,251M35,251C35,286 42,320 55,351C68,382 87,410 111,433C134,456 162,475 193,488C224,501 258,508 294,508C329,508 363,501 394,488C425,475 453,456 476,433C499,410 518,382 531,351C544,320 551,286 551,251C551,215 544,181 531,150C518,119 499,91 476,68C453,44 425,25 394,12C363,-1 329,-8 294,-8C258,-8 224,-1 193,12C162,25 134,44 111,68C87,91 68,119 55,150C42,181 35,215 35,251M675,119C706,119 734,124 757,133C780,142 800,151 817,160l7,3l45,-100C857,51 843,41 827,32C811,23 795,15 778,10C761,4 743,0 726,-3C708,-6 691,-8 675,-8C639,-8 605,-1 574,12C543,25 515,44 492,68C468,91 449,119 436,150C423,181 416,215 416,251C416,286 423,320 436,351C449,382 468,410 491,433C514,456 542,474 573,487C604,500 638,507 673,507C712,507 745,500 773,485C801,470 824,450 842,427C860,404 873,378 882,350C891,321 895,293 895,266C895,245 892,224 887,204l-320,0C565,204 564,202 564,199C573,178 588,159 608,143C627,127 650,119 675,119M672,372C649,372 628,366 610,355C591,344 577,329 567,310C567,309 567,309 567,309C566,308 566,308 566,307C566,305 567,304 570,304l178,0C751,304 752,305 752,306C752,323 745,338 730,352C715,365 695,372 672,372z"
       id="glyph453" /><glyph
       unicode="Œ"
       horiz-adv-x="1130"
       d="M55,375C55,428 65,477 85,524C105,571 132,611 167,646C202,681 242,708 289,728C335,748 385,758 438,758C491,758 540,748 587,728C634,708 674,681 709,646C744,611 771,571 791,524C811,477 821,428 821,375C821,322 811,272 791,226C771,179 744,139 709,104C674,69 634,42 587,22C540,2 491,-8 438,-8C385,-8 335,2 289,22C242,42 202,69 167,104C132,139 105,179 85,226C65,272 55,322 55,375M198,375C198,342 204,311 217,282C230,253 247,227 269,206C290,184 316,167 345,154C374,141 405,135 438,135C471,135 503,141 532,154C561,167 586,184 608,206C629,227 646,253 659,282C672,311 678,342 678,375C678,408 672,440 659,469C646,498 629,523 608,545C586,566 561,583 532,596C503,609 471,615 438,615C405,615 374,609 345,596C316,583 290,566 269,545C247,523 230,498 217,469C204,440 198,408 198,375M822,149C822,145 824,143 828,143l263,0l0,-143l-412,0l0,750l412,0l0,-143l-263,0C824,607 822,605 822,601l0,-147C822,450 824,448 828,448l263,0l0,-143l-263,0C824,305 822,303 822,299z"
       id="glyph455" /><glyph
       unicode="ﬁ"
       horiz-adv-x="701"
       d="M141,558C141,603 152,638 175,664C198,689 231,702 276,702l136,0l0,-118l-80,0C314,584 300,581 291,575C282,569 277,556 277,537l0,-37l165,0l0,-122l-165,0l0,-378l-136,0l0,378l-111,0l0,122l111,0M520,501l136,0l0,-501l-136,0M520,610C520,628 527,644 540,658C553,671 570,678 589,678C607,678 623,671 637,658C650,644 657,628 657,610C657,591 650,574 637,561C623,548 607,541 589,541C570,541 553,548 540,561C527,574 520,591 520,610z"
       id="glyph457" /><glyph
       unicode="ﬂ"
       horiz-adv-x="701"
       d="M141,558C141,603 152,638 175,664C198,689 231,702 276,702l136,0l0,-118l-80,0C314,584 300,581 291,575C282,569 277,556 277,537l0,-37l165,0l0,-122l-165,0l0,-378l-136,0l0,378l-111,0l0,122l111,0M520,700l136,0l0,-700l-136,0z"
       id="glyph459" /><glyph
       unicode="¼"
       horiz-adv-x="822"
       d="M43,750l170,0l0,-489l-93,0l0,397C120,661 119,662 116,662l-73,0M437,170C474,228 506,280 535,327C547,347 559,366 571,385C583,404 594,421 603,436C612,451 620,463 626,472C631,481 634,486 635,487l95,0l0,-317l46,0l0,-95l-46,0l0,-75l-93,0l0,75C637,78 636,79 633,79l-196,0M635,333C611,292 593,260 580,238C567,216 557,200 551,189l-12,-21C539,166 540,165 541,165l92,0C636,165 637,166 637,169C637,180 637,196 637,216C636,235 636,255 636,274C635,296 635,319 635,344M242,1l216,756l60,-14l-215,-750z"
       id="glyph461" /><glyph
       unicode="½"
       horiz-adv-x="836"
       d="M43,750l170,0l0,-489l-93,0l0,397C120,661 119,662 116,662l-73,0M242,1l216,756l60,-14l-215,-750M491,111C493,113 499,118 508,127C517,135 528,145 541,157C554,169 568,182 583,196C598,209 612,222 625,234C638,246 649,256 659,265C668,274 674,279 677,282C684,289 690,297 695,306C699,315 701,323 701,332C701,349 695,364 683,377C670,390 655,396 637,396C623,396 611,392 600,383C589,374 581,364 576,351l-86,30C500,412 519,437 546,457C573,477 603,487 637,487C658,487 679,483 698,475C717,467 733,456 747,442C761,428 772,412 781,393C789,374 793,353 793,332C793,309 789,288 780,270C771,252 759,235 742,218C737,213 726,203 711,190C695,176 678,162 661,148C641,131 619,113 596,94C596,93 597,92 598,92l196,0l0,-92l-302,0z"
       id="glyph463" /><glyph
       unicode="¾"
       horiz-adv-x="920"
       d="M75,691C86,709 100,724 118,735C136,746 156,751 179,751C196,751 211,748 226,742C241,735 254,727 265,716C276,705 284,692 291,677C297,662 300,646 300,629C300,599 291,574 272,553C271,550 270,549 270,549l0,-1C270,547 271,547 272,547C294,532 312,513 326,490C339,467 346,441 346,412C346,390 342,370 334,351C325,332 314,315 300,300C285,285 268,274 249,266C230,257 209,253 187,253C160,253 136,259 115,272C94,284 75,300 60,320C53,329 48,340 43,352C38,363 36,376 36,389l86,12C125,385 133,372 145,362C157,351 171,346 188,346C206,346 221,353 234,368C247,382 253,399 253,419C253,438 247,454 236,468C224,481 210,490 193,495l-43,12l0,68l40,11C198,588 204,592 209,597C213,602 215,612 215,625C215,634 212,643 205,650C198,657 189,661 180,661C171,661 162,659 154,655C145,650 138,645 131,640C124,634 117,627 110,620M520,170C557,228 589,280 618,327C630,347 642,366 654,385C666,404 677,421 686,436C695,451 703,463 709,472C714,481 717,486 718,487l95,0l0,-317l46,0l0,-95l-46,0l0,-75l-93,0l0,75C720,78 719,79 716,79l-196,0M718,333C694,292 676,260 663,238C650,216 640,200 634,189l-12,-21C622,166 623,165 624,165l92,0C719,165 720,166 720,169C720,180 720,196 720,216C719,235 719,255 719,274C718,296 718,319 718,344M325,1l216,756l60,-14l-215,-750z"
       id="glyph465" /></font><font
     horiz-adv-x="1000"
     id="font467"><!-- Copyright (c) 2013 by Style-7. All rights reserved. http://www.styleseven.com --><!-- Copyright: Copyright 2016 Adobe System Incorporated. All rights reserved. --><font-face
       font-family="ModernLEDBoard-7"
       units-per-em="1000"
       underline-position="-325"
       underline-thickness="150"
       id="font-face469" /><missing-glyph
       horiz-adv-x="1200"
       id="missing-glyph471" /><glyph
       unicode=" "
       horiz-adv-x="1200"
       id="glyph473" /><glyph
       unicode="$"
       horiz-adv-x="1200"
       d="M400,1550l150,0l0,-150l-150,0M400,1350l150,0l0,-150l-150,0M0,1250l150,0l0,-150l-150,0M0,1050l150,0l0,-150l-150,0M800,650l150,0l0,-150l-150,0M400,550l150,0l0,-150l-150,0M800,450l150,0l0,-150l-150,0M400,350l150,0l0,-150l-150,0M600,1350l150,0l0,-150l-150,0M400,950l150,0l0,-150l-150,0M0,250l150,0l0,-150l-150,0M800,250l150,0l0,-150l-150,0M800,1250l150,0l0,-150l-150,0M0,850l150,0l0,-150l-150,0M200,150l150,0l0,-150l-150,0M400,150l150,0l0,-150l-150,0M200,1350l150,0l0,-150l-150,0M200,750l150,0l0,-150l-150,0M600,150l150,0l0,-150l-150,0M400,750l150,0l0,-150l-150,0M400,-50l150,0l0,-150l-150,0M600,750l150,0l0,-150l-150,0M400,1150l150,0l0,-150l-150,0z"
       id="glyph475" /><glyph
       unicode="%"
       horiz-adv-x="1400"
       d="M0,1150l150,0l0,-150l-150,0M1000,1150l150,0l0,-150l-150,0M0,950l150,0l0,-150l-150,0M200,950l150,0l0,-150l-150,0M400,550l150,0l0,-150l-150,0M800,950l150,0l0,-150l-150,0M200,350l150,0l0,-150l-150,0M800,350l150,0l0,-150l-150,0M1000,350l150,0l0,-150l-150,0M200,1150l150,0l0,-150l-150,0M0,150l150,0l0,-150l-150,0M600,750l150,0l0,-150l-150,0M800,150l150,0l0,-150l-150,0M1000,150l150,0l0,-150l-150,0z"
       id="glyph477" /><glyph
       unicode="&amp;"
       horiz-adv-x="1200"
       d="M200,1350l150,0l0,-150l-150,0M0,1250l150,0l0,-150l-150,0M600,850l150,0l0,-150l-150,0M0,450l150,0l0,-150l-150,0M600,450l150,0l0,-150l-150,0M200,750l150,0l0,-150l-150,0M0,250l150,0l0,-150l-150,0M600,250l150,0l0,-150l-150,0M0,1050l150,0l0,-150l-150,0M400,750l150,0l0,-150l-150,0M200,150l150,0l0,-150l-150,0M400,150l150,0l0,-150l-150,0M800,150l150,0l0,-150l-150,0M600,1050l150,0l0,-150l-150,0M800,750l150,0l0,-150l-150,0M400,1350l150,0l0,-150l-150,0M600,1250l150,0l0,-150l-150,0M0,650l150,0l0,-150l-150,0M0,850l150,0l0,-150l-150,0M600,650l150,0l0,-150l-150,0z"
       id="glyph479" /><glyph
       unicode="'"
       horiz-adv-x="400"
       d="M0,1350l150,0l0,-150l-150,0M0,950l150,0l0,-150l-150,0M0,1150l150,0l0,-150l-150,0z"
       id="glyph481" /><glyph
       unicode="("
       horiz-adv-x="800"
       d="M200,1350l150,0l0,-150l-150,0M0,1250l150,0l0,-150l-150,0M0,1050l150,0l0,-150l-150,0M0,250l150,0l0,-150l-150,0M0,850l150,0l0,-150l-150,0M200,150l150,0l0,-150l-150,0M400,150l150,0l0,-150l-150,0M400,1350l150,0l0,-150l-150,0M0,650l150,0l0,-150l-150,0M0,450l150,0l0,-150l-150,0z"
       id="glyph483" /><glyph
       unicode=")"
       horiz-adv-x="800"
       d="M0,1350l150,0l0,-150l-150,0M400,1250l150,0l0,-150l-150,0M400,1050l150,0l0,-150l-150,0M400,250l150,0l0,-150l-150,0M0,150l150,0l0,-150l-150,0M200,150l150,0l0,-150l-150,0M400,850l150,0l0,-150l-150,0M200,1350l150,0l0,-150l-150,0M400,650l150,0l0,-150l-150,0M400,450l150,0l0,-150l-150,0z"
       id="glyph485" /><glyph
       unicode="*"
       horiz-adv-x="1200"
       d="M200,1150l150,0l0,-150l-150,0M400,950l150,0l0,-150l-150,0M0,750l150,0l0,-150l-150,0M200,750l150,0l0,-150l-150,0M400,750l150,0l0,-150l-150,0M400,550l150,0l0,-150l-150,0M600,750l150,0l0,-150l-150,0M200,350l150,0l0,-150l-150,0M600,350l150,0l0,-150l-150,0M600,1150l150,0l0,-150l-150,0M800,750l150,0l0,-150l-150,0z"
       id="glyph487" /><glyph
       unicode="+"
       horiz-adv-x="1200"
       d="M400,1150l150,0l0,-150l-150,0M0,750l150,0l0,-150l-150,0M600,750l150,0l0,-150l-150,0M400,550l150,0l0,-150l-150,0M800,750l150,0l0,-150l-150,0M400,350l150,0l0,-150l-150,0M400,950l150,0l0,-150l-150,0M200,750l150,0l0,-150l-150,0M400,750l150,0l0,-150l-150,0z"
       id="glyph489" /><glyph
       unicode=","
       horiz-adv-x="600"
       d="M0,150l150,0l0,-150l-150,0M200,-150l150,0l0,-150l-150,0M200,50l150,0l0,-150l-150,0z"
       id="glyph491" /><glyph
       unicode="-"
       horiz-adv-x="1200"
       d="M0,750l150,0l0,-150l-150,0M400,750l150,0l0,-150l-150,0M800,750l150,0l0,-150l-150,0M200,750l150,0l0,-150l-150,0M600,750l150,0l0,-150l-150,0z"
       id="glyph493" /><glyph
       unicode="."
       horiz-adv-x="400"
       d="M0,150l150,0l0,-150l-150,0z"
       id="glyph495" /><glyph
       unicode="/"
       horiz-adv-x="1400"
       d="M1000,1150l150,0l0,-150l-150,0M600,750l150,0l0,-150l-150,0M400,550l150,0l0,-150l-150,0M200,350l150,0l0,-150l-150,0M800,950l150,0l0,-150l-150,0M0,150l150,0l0,-150l-150,0z"
       id="glyph497" /><glyph
       unicode="0"
       horiz-adv-x="1200"
       d="M200,1350l150,0l0,-150l-150,0M600,1350l150,0l0,-150l-150,0M800,1250l150,0l0,-150l-150,0M600,950l150,0l0,-150l-150,0M0,450l150,0l0,-150l-150,0M800,450l150,0l0,-150l-150,0M0,850l150,0l0,-150l-150,0M0,250l150,0l0,-150l-150,0M800,250l150,0l0,-150l-150,0M800,850l150,0l0,-150l-150,0M200,150l150,0l0,-150l-150,0M400,150l150,0l0,-150l-150,0M600,150l150,0l0,-150l-150,0M400,1350l150,0l0,-150l-150,0M0,1250l150,0l0,-150l-150,0M0,1050l150,0l0,-150l-150,0M400,750l150,0l0,-150l-150,0M800,1050l150,0l0,-150l-150,0M0,650l150,0l0,-150l-150,0M800,650l150,0l0,-150l-150,0M200,550l150,0l0,-150l-150,0z"
       id="glyph499" /><glyph
       unicode="1"
       horiz-adv-x="1200"
       d="M400,1350l150,0l0,-150l-150,0M0,1200l150,0l0,-150l-150,0M400,350l150,0l0,-150l-150,0M0,150l150,0l0,-150l-150,0M400,950l150,0l0,-150l-150,0M200,150l150,0l0,-150l-150,0M400,150l150,0l0,-150l-150,0M600,150l150,0l0,-150l-150,0M800,150l150,0l0,-150l-150,0M200,1300l150,0l0,-150l-150,0M400,750l150,0l0,-150l-150,0M400,1150l150,0l0,-150l-150,0M400,550l150,0l0,-150l-150,0z"
       id="glyph501" /><glyph
       unicode="2"
       horiz-adv-x="1200"
       d="M200,1350l150,0l0,-150l-150,0M600,1350l150,0l0,-150l-150,0M800,1250l150,0l0,-150l-150,0M200,750l150,0l0,-150l-150,0M800,150l150,0l0,-150l-150,0M400,750l150,0l0,-150l-150,0M600,750l150,0l0,-150l-150,0M0,550l150,0l0,-150l-150,0M400,1350l150,0l0,-150l-150,0M0,1250l150,0l0,-150l-150,0M800,1050l150,0l0,-150l-150,0M0,350l150,0l0,-150l-150,0M800,850l150,0l0,-150l-150,0M0,150l150,0l0,-150l-150,0M200,150l150,0l0,-150l-150,0M400,150l150,0l0,-150l-150,0M600,150l150,0l0,-150l-150,0z"
       id="glyph503" /><glyph
       unicode="3"
       horiz-adv-x="1200"
       d="M200,1350l150,0l0,-150l-150,0M600,1350l150,0l0,-150l-150,0M800,1250l150,0l0,-150l-150,0M200,750l150,0l0,-150l-150,0M200,150l150,0l0,-150l-150,0M400,150l150,0l0,-150l-150,0M400,750l150,0l0,-150l-150,0M600,150l150,0l0,-150l-150,0M600,750l150,0l0,-150l-150,0M400,1350l150,0l0,-150l-150,0M0,1250l150,0l0,-150l-150,0M800,650l150,0l0,-150l-150,0M800,1050l150,0l0,-150l-150,0M800,450l150,0l0,-150l-150,0M800,850l150,0l0,-150l-150,0M0,250l150,0l0,-150l-150,0M800,250l150,0l0,-150l-150,0z"
       id="glyph505" /><glyph
       unicode="4"
       horiz-adv-x="1200"
       d="M0,1350l150,0l0,-150l-150,0M0,1150l150,0l0,-150l-150,0M800,750l150,0l0,-150l-150,0M200,650l150,0l0,-150l-150,0M0,950l150,0l0,-150l-150,0M400,650l150,0l0,-150l-150,0M600,650l150,0l0,-150l-150,0M800,950l150,0l0,-150l-150,0M800,1350l150,0l0,-150l-150,0M800,1150l150,0l0,-150l-150,0M800,550l150,0l0,-150l-150,0M0,750l150,0l0,-150l-150,0M800,350l150,0l0,-150l-150,0M800,150l150,0l0,-150l-150,0z"
       id="glyph507" /><glyph
       unicode="5"
       horiz-adv-x="1200"
       d="M0,1350l150,0l0,-150l-150,0M400,1350l150,0l0,-150l-150,0M800,1350l150,0l0,-150l-150,0M0,250l150,0l0,-150l-150,0M800,250l150,0l0,-150l-150,0M0,750l150,0l0,-150l-150,0M200,150l150,0l0,-150l-150,0M400,150l150,0l0,-150l-150,0M200,750l150,0l0,-150l-150,0M600,150l150,0l0,-150l-150,0M400,750l150,0l0,-150l-150,0M600,750l150,0l0,-150l-150,0M200,1350l150,0l0,-150l-150,0M0,1150l150,0l0,-150l-150,0M800,650l150,0l0,-150l-150,0M600,1350l150,0l0,-150l-150,0M800,450l150,0l0,-150l-150,0M0,950l150,0l0,-150l-150,0z"
       id="glyph509" /><glyph
       unicode="6"
       horiz-adv-x="1200"
       d="M200,1350l150,0l0,-150l-150,0M600,1350l150,0l0,-150l-150,0M800,1250l150,0l0,-150l-150,0M0,250l150,0l0,-150l-150,0M800,250l150,0l0,-150l-150,0M200,750l150,0l0,-150l-150,0M400,750l150,0l0,-150l-150,0M200,150l150,0l0,-150l-150,0M400,150l150,0l0,-150l-150,0M600,750l150,0l0,-150l-150,0M600,150l150,0l0,-150l-150,0M0,650l150,0l0,-150l-150,0M400,1350l150,0l0,-150l-150,0M0,1250l150,0l0,-150l-150,0M0,1050l150,0l0,-150l-150,0M800,650l150,0l0,-150l-150,0M0,850l150,0l0,-150l-150,0M0,450l150,0l0,-150l-150,0M800,450l150,0l0,-150l-150,0z"
       id="glyph511" /><glyph
       unicode="7"
       horiz-adv-x="1200"
       d="M200,1350l150,0l0,-150l-150,0M600,1350l150,0l0,-150l-150,0M0,1250l150,0l0,-150l-150,0M800,950l150,0l0,-150l-150,0M0,850l150,0l0,-150l-150,0M800,750l150,0l0,-150l-150,0M400,1350l150,0l0,-150l-150,0M800,1150l150,0l0,-150l-150,0M800,550l150,0l0,-150l-150,0M800,350l150,0l0,-150l-150,0M800,1350l150,0l0,-150l-150,0M0,1050l150,0l0,-150l-150,0M800,150l150,0l0,-150l-150,0z"
       id="glyph513" /><glyph
       unicode="8"
       horiz-adv-x="1200"
       d="M200,1350l150,0l0,-150l-150,0M600,1350l150,0l0,-150l-150,0M800,1250l150,0l0,-150l-150,0M0,850l150,0l0,-150l-150,0M0,450l150,0l0,-150l-150,0M800,450l150,0l0,-150l-150,0M800,850l150,0l0,-150l-150,0M0,250l150,0l0,-150l-150,0M200,750l150,0l0,-150l-150,0M800,250l150,0l0,-150l-150,0M200,150l150,0l0,-150l-150,0M400,750l150,0l0,-150l-150,0M400,150l150,0l0,-150l-150,0M600,150l150,0l0,-150l-150,0M400,1350l150,0l0,-150l-150,0M0,1250l150,0l0,-150l-150,0M0,1050l150,0l0,-150l-150,0M600,750l150,0l0,-150l-150,0M800,1050l150,0l0,-150l-150,0M0,650l150,0l0,-150l-150,0M800,650l150,0l0,-150l-150,0z"
       id="glyph515" /><glyph
       unicode="9"
       horiz-adv-x="1200"
       d="M200,1350l150,0l0,-150l-150,0M600,1350l150,0l0,-150l-150,0M800,1250l150,0l0,-150l-150,0M0,850l150,0l0,-150l-150,0M800,450l150,0l0,-150l-150,0M0,250l150,0l0,-150l-150,0M800,250l150,0l0,-150l-150,0M800,850l150,0l0,-150l-150,0M200,150l150,0l0,-150l-150,0M400,150l150,0l0,-150l-150,0M200,750l150,0l0,-150l-150,0M600,150l150,0l0,-150l-150,0M400,750l150,0l0,-150l-150,0M400,1350l150,0l0,-150l-150,0M0,1250l150,0l0,-150l-150,0M0,1050l150,0l0,-150l-150,0M600,750l150,0l0,-150l-150,0M800,1050l150,0l0,-150l-150,0M800,650l150,0l0,-150l-150,0z"
       id="glyph517" /><glyph
       unicode=":"
       horiz-adv-x="400"
       d="M0,950l150,0l0,-150l-150,0M0,550l150,0l0,-150l-150,0z"
       id="glyph519" /><glyph
       unicode=";"
       horiz-adv-x="600"
       d="M0,950l150,0l0,-150l-150,0M200,50l150,0l0,-150l-150,0M0,150l150,0l0,-150l-150,0M200,-150l150,0l0,-150l-150,0z"
       id="glyph521" /><glyph
       unicode="&lt;"
       horiz-adv-x="800"
       d="M400,1150l150,0l0,-150l-150,0M0,750l150,0l0,-150l-150,0M200,550l150,0l0,-150l-150,0M400,350l150,0l0,-150l-150,0M200,950l150,0l0,-150l-150,0z"
       id="glyph523" /><glyph
       unicode="="
       horiz-adv-x="1200"
       d="M0,950l150,0l0,-150l-150,0M400,950l150,0l0,-150l-150,0M800,950l150,0l0,-150l-150,0M800,550l150,0l0,-150l-150,0M200,950l150,0l0,-150l-150,0M0,550l150,0l0,-150l-150,0M200,550l150,0l0,-150l-150,0M600,950l150,0l0,-150l-150,0M400,550l150,0l0,-150l-150,0M600,550l150,0l0,-150l-150,0z"
       id="glyph525" /><glyph
       unicode="&gt;"
       horiz-adv-x="800"
       d="M0,1150l150,0l0,-150l-150,0M400,750l150,0l0,-150l-150,0M200,550l150,0l0,-150l-150,0M0,350l150,0l0,-150l-150,0M200,950l150,0l0,-150l-150,0z"
       id="glyph527" /><glyph
       unicode="?"
       horiz-adv-x="1200"
       d="M200,1350l150,0l0,-150l-150,0M600,1350l150,0l0,-150l-150,0M800,1250l150,0l0,-150l-150,0M400,750l150,0l0,-150l-150,0M600,750l150,0l0,-150l-150,0M400,550l150,0l0,-150l-150,0M400,1350l150,0l0,-150l-150,0M0,1250l150,0l0,-150l-150,0M800,1050l150,0l0,-150l-150,0M400,150l150,0l0,-150l-150,0M800,850l150,0l0,-150l-150,0z"
       id="glyph529" /><glyph
       unicode="@"
       horiz-adv-x="1200"
       d="M200,1350l150,0l0,-150l-150,0M600,1350l150,0l0,-150l-150,0M800,1250l150,0l0,-150l-150,0M0,850l150,0l0,-150l-150,0M0,450l150,0l0,-150l-150,0M400,450l150,0l0,-150l-150,0M400,850l150,0l0,-150l-150,0M600,450l150,0l0,-150l-150,0M800,450l150,0l0,-150l-150,0M600,850l150,0l0,-150l-150,0M800,850l150,0l0,-150l-150,0M0,250l150,0l0,-150l-150,0M200,150l150,0l0,-150l-150,0M400,150l150,0l0,-150l-150,0M600,150l150,0l0,-150l-150,0M400,1350l150,0l0,-150l-150,0M0,1250l150,0l0,-150l-150,0M0,1050l150,0l0,-150l-150,0M800,1050l150,0l0,-150l-150,0M0,650l150,0l0,-150l-150,0M400,650l150,0l0,-150l-150,0M800,650l150,0l0,-150l-150,0z"
       id="glyph531" /><glyph
       unicode="A"
       horiz-adv-x="1200"
       d="M400,1350l150,0l0,-150l-150,0M0,1150l150,0l0,-150l-150,0M800,1150l150,0l0,-150l-150,0M0,350l150,0l0,-150l-150,0M800,350l150,0l0,-150l-150,0M0,750l150,0l0,-150l-150,0M800,750l150,0l0,-150l-150,0M0,150l150,0l0,-150l-150,0M200,650l150,0l0,-150l-150,0M800,150l150,0l0,-150l-150,0M400,650l150,0l0,-150l-150,0M200,1300l150,0l0,-150l-150,0M0,950l150,0l0,-150l-150,0M600,650l150,0l0,-150l-150,0M600,1300l150,0l0,-150l-150,0M800,950l150,0l0,-150l-150,0M0,550l150,0l0,-150l-150,0M800,550l150,0l0,-150l-150,0z"
       id="glyph533" /><glyph
       unicode="B"
       horiz-adv-x="1200"
       d="M0,1350l150,0l0,-150l-150,0M400,1350l150,0l0,-150l-150,0M0,950l150,0l0,-150l-150,0M800,650l150,0l0,-150l-150,0M0,550l150,0l0,-150l-150,0M800,450l150,0l0,-150l-150,0M0,350l150,0l0,-150l-150,0M800,1250l150,0l0,-150l-150,0M800,850l150,0l0,-150l-150,0M800,250l150,0l0,-150l-150,0M0,150l150,0l0,-150l-150,0M0,750l150,0l0,-150l-150,0M200,150l150,0l0,-150l-150,0M400,150l150,0l0,-150l-150,0M200,750l150,0l0,-150l-150,0M600,150l150,0l0,-150l-150,0M200,1350l150,0l0,-150l-150,0M0,1150l150,0l0,-150l-150,0M400,750l150,0l0,-150l-150,0M600,750l150,0l0,-150l-150,0M600,1350l150,0l0,-150l-150,0M800,1050l150,0l0,-150l-150,0z"
       id="glyph535" /><glyph
       unicode="C"
       horiz-adv-x="1200"
       d="M200,1350l150,0l0,-150l-150,0M600,1350l150,0l0,-150l-150,0M800,1250l150,0l0,-150l-150,0M0,650l150,0l0,-150l-150,0M0,450l150,0l0,-150l-150,0M0,250l150,0l0,-150l-150,0M800,250l150,0l0,-150l-150,0M400,1350l150,0l0,-150l-150,0M0,1250l150,0l0,-150l-150,0M0,1050l150,0l0,-150l-150,0M200,150l150,0l0,-150l-150,0M400,150l150,0l0,-150l-150,0M0,850l150,0l0,-150l-150,0M600,150l150,0l0,-150l-150,0z"
       id="glyph537" /><glyph
       unicode="D"
       horiz-adv-x="1200"
       d="M0,1350l150,0l0,-150l-150,0M400,1350l150,0l0,-150l-150,0M800,1250l150,0l0,-150l-150,0M0,950l150,0l0,-150l-150,0M800,250l150,0l0,-150l-150,0M800,850l150,0l0,-150l-150,0M0,150l150,0l0,-150l-150,0M200,150l150,0l0,-150l-150,0M400,150l150,0l0,-150l-150,0M600,150l150,0l0,-150l-150,0M0,1150l150,0l0,-150l-150,0M0,750l150,0l0,-150l-150,0M200,1350l150,0l0,-150l-150,0M800,650l150,0l0,-150l-150,0M0,550l150,0l0,-150l-150,0M600,1350l150,0l0,-150l-150,0M800,1050l150,0l0,-150l-150,0M800,450l150,0l0,-150l-150,0M0,350l150,0l0,-150l-150,0z"
       id="glyph539" /><glyph
       unicode="E"
       horiz-adv-x="1200"
       d="M200,1350l150,0l0,-150l-150,0M600,1350l150,0l0,-150l-150,0M0,1250l150,0l0,-150l-150,0M200,750l150,0l0,-150l-150,0M200,150l150,0l0,-150l-150,0M400,150l150,0l0,-150l-150,0M600,150l150,0l0,-150l-150,0M800,150l150,0l0,-150l-150,0M400,750l150,0l0,-150l-150,0M600,750l150,0l0,-150l-150,0M0,650l150,0l0,-150l-150,0M400,1350l150,0l0,-150l-150,0M0,1050l150,0l0,-150l-150,0M0,450l150,0l0,-150l-150,0M800,1350l150,0l0,-150l-150,0M0,850l150,0l0,-150l-150,0M0,250l150,0l0,-150l-150,0z"
       id="glyph541" /><glyph
       unicode="F"
       horiz-adv-x="1200"
       d="M0,1350l150,0l0,-150l-150,0M400,1350l150,0l0,-150l-150,0M800,1350l150,0l0,-150l-150,0M0,750l150,0l0,-150l-150,0M200,750l150,0l0,-150l-150,0M400,750l150,0l0,-150l-150,0M600,750l150,0l0,-150l-150,0M200,1350l150,0l0,-150l-150,0M0,1150l150,0l0,-150l-150,0M0,550l150,0l0,-150l-150,0M600,1350l150,0l0,-150l-150,0M0,950l150,0l0,-150l-150,0M0,350l150,0l0,-150l-150,0M0,150l150,0l0,-150l-150,0z"
       id="glyph543" /><glyph
       unicode="G"
       horiz-adv-x="1200"
       d="M200,1350l150,0l0,-150l-150,0M600,1350l150,0l0,-150l-150,0M800,1250l150,0l0,-150l-150,0M0,650l150,0l0,-150l-150,0M0,250l150,0l0,-150l-150,0M800,250l150,0l0,-150l-150,0M400,650l150,0l0,-150l-150,0M200,150l150,0l0,-150l-150,0M600,650l150,0l0,-150l-150,0M400,150l150,0l0,-150l-150,0M600,150l150,0l0,-150l-150,0M800,650l150,0l0,-150l-150,0M400,1350l150,0l0,-150l-150,0M0,1250l150,0l0,-150l-150,0M0,1050l150,0l0,-150l-150,0M0,450l150,0l0,-150l-150,0M0,850l150,0l0,-150l-150,0M800,450l150,0l0,-150l-150,0z"
       id="glyph545" /><glyph
       unicode="H"
       horiz-adv-x="1200"
       d="M0,1350l150,0l0,-150l-150,0M0,1150l150,0l0,-150l-150,0M0,950l150,0l0,-150l-150,0M400,750l150,0l0,-150l-150,0M800,350l150,0l0,-150l-150,0M600,750l150,0l0,-150l-150,0M800,750l150,0l0,-150l-150,0M0,150l150,0l0,-150l-150,0M800,150l150,0l0,-150l-150,0M800,950l150,0l0,-150l-150,0M800,1350l150,0l0,-150l-150,0M800,1150l150,0l0,-150l-150,0M0,550l150,0l0,-150l-150,0M800,550l150,0l0,-150l-150,0M0,750l150,0l0,-150l-150,0M200,750l150,0l0,-150l-150,0M0,350l150,0l0,-150l-150,0z"
       id="glyph547" /><glyph
       unicode="I"
       horiz-adv-x="1200"
       d="M0,1350l150,0l0,-150l-150,0M400,1350l150,0l0,-150l-150,0M800,1350l150,0l0,-150l-150,0M400,750l150,0l0,-150l-150,0M400,550l150,0l0,-150l-150,0M400,350l150,0l0,-150l-150,0M200,1350l150,0l0,-150l-150,0M400,1150l150,0l0,-150l-150,0M0,150l150,0l0,-150l-150,0M200,150l150,0l0,-150l-150,0M400,150l150,0l0,-150l-150,0M600,1350l150,0l0,-150l-150,0M600,150l150,0l0,-150l-150,0M800,150l150,0l0,-150l-150,0M400,950l150,0l0,-150l-150,0z"
       id="glyph549" /><glyph
       unicode="J"
       horiz-adv-x="1200"
       d="M0,1350l150,0l0,-150l-150,0M400,1350l150,0l0,-150l-150,0M800,850l150,0l0,-150l-150,0M400,150l150,0l0,-150l-150,0M600,150l150,0l0,-150l-150,0M800,650l150,0l0,-150l-150,0M800,1250l150,0l0,-150l-150,0M0,450l150,0l0,-150l-150,0M800,450l150,0l0,-150l-150,0M200,1350l150,0l0,-150l-150,0M0,1150l150,0l0,-150l-150,0M0,250l150,0l0,-150l-150,0M600,1350l150,0l0,-150l-150,0M800,250l150,0l0,-150l-150,0M800,1050l150,0l0,-150l-150,0M200,150l150,0l0,-150l-150,0z"
       id="glyph551" /><glyph
       unicode="K"
       horiz-adv-x="1200"
       d="M0,1350l150,0l0,-150l-150,0M0,1150l150,0l0,-150l-150,0M200,750l150,0l0,-150l-150,0M0,950l150,0l0,-150l-150,0M0,550l150,0l0,-150l-150,0M400,550l150,0l0,-150l-150,0M400,950l150,0l0,-150l-150,0M800,1350l150,0l0,-150l-150,0M600,1150l150,0l0,-150l-150,0M0,350l150,0l0,-150l-150,0M600,350l150,0l0,-150l-150,0M0,750l150,0l0,-150l-150,0M0,150l150,0l0,-150l-150,0M800,150l150,0l0,-150l-150,0z"
       id="glyph553" /><glyph
       unicode="L"
       horiz-adv-x="1200"
       d="M0,1350l150,0l0,-150l-150,0M0,950l150,0l0,-150l-150,0M0,750l150,0l0,-150l-150,0M200,150l150,0l0,-150l-150,0M400,150l150,0l0,-150l-150,0M600,150l150,0l0,-150l-150,0M800,150l150,0l0,-150l-150,0M0,550l150,0l0,-150l-150,0M0,1150l150,0l0,-150l-150,0M0,350l150,0l0,-150l-150,0M0,150l150,0l0,-150l-150,0z"
       id="glyph555" /><glyph
       unicode="M"
       horiz-adv-x="1200"
       d="M0,1350l150,0l0,-150l-150,0M0,1150l150,0l0,-150l-150,0M0,750l150,0l0,-150l-150,0M0,350l150,0l0,-150l-150,0M800,350l150,0l0,-150l-150,0M0,150l150,0l0,-150l-150,0M800,150l150,0l0,-150l-150,0M0,950l150,0l0,-150l-150,0M400,750l150,0l0,-150l-150,0M800,750l150,0l0,-150l-150,0M200,950l150,0l0,-150l-150,0M800,1350l150,0l0,-150l-150,0M800,1150l150,0l0,-150l-150,0M600,950l150,0l0,-150l-150,0M800,950l150,0l0,-150l-150,0M0,550l150,0l0,-150l-150,0M800,550l150,0l0,-150l-150,0z"
       id="glyph557" /><glyph
       unicode="N"
       horiz-adv-x="1200"
       d="M0,1350l150,0l0,-150l-150,0M0,1150l150,0l0,-150l-150,0M0,750l150,0l0,-150l-150,0M800,350l150,0l0,-150l-150,0M400,750l150,0l0,-150l-150,0M0,150l150,0l0,-150l-150,0M800,150l150,0l0,-150l-150,0M800,750l150,0l0,-150l-150,0M0,950l150,0l0,-150l-150,0M200,950l150,0l0,-150l-150,0M800,1350l150,0l0,-150l-150,0M800,1150l150,0l0,-150l-150,0M800,950l150,0l0,-150l-150,0M0,550l150,0l0,-150l-150,0M600,550l150,0l0,-150l-150,0M800,550l150,0l0,-150l-150,0M0,350l150,0l0,-150l-150,0z"
       id="glyph559" /><glyph
       unicode="O"
       horiz-adv-x="1200"
       d="M200,1350l150,0l0,-150l-150,0M600,1350l150,0l0,-150l-150,0M800,1250l150,0l0,-150l-150,0M0,850l150,0l0,-150l-150,0M800,250l150,0l0,-150l-150,0M800,850l150,0l0,-150l-150,0M200,150l150,0l0,-150l-150,0M400,150l150,0l0,-150l-150,0M600,150l150,0l0,-150l-150,0M0,650l150,0l0,-150l-150,0M800,650l150,0l0,-150l-150,0M400,1350l150,0l0,-150l-150,0M0,1250l150,0l0,-150l-150,0M0,1050l150,0l0,-150l-150,0M800,1050l150,0l0,-150l-150,0M0,450l150,0l0,-150l-150,0M800,450l150,0l0,-150l-150,0M0,250l150,0l0,-150l-150,0z"
       id="glyph561" /><glyph
       unicode="P"
       horiz-adv-x="1200"
       d="M0,1350l150,0l0,-150l-150,0M400,1350l150,0l0,-150l-150,0M0,950l150,0l0,-150l-150,0M0,350l150,0l0,-150l-150,0M800,850l150,0l0,-150l-150,0M0,150l150,0l0,-150l-150,0M800,1250l150,0l0,-150l-150,0M0,750l150,0l0,-150l-150,0M200,750l150,0l0,-150l-150,0M400,750l150,0l0,-150l-150,0M200,1350l150,0l0,-150l-150,0M0,1150l150,0l0,-150l-150,0M600,750l150,0l0,-150l-150,0M600,1350l150,0l0,-150l-150,0M800,1050l150,0l0,-150l-150,0M0,550l150,0l0,-150l-150,0z"
       id="glyph563" /><glyph
       unicode="Q"
       horiz-adv-x="1200"
       d="M200,1350l150,0l0,-150l-150,0M600,1350l150,0l0,-150l-150,0M800,1250l150,0l0,-150l-150,0M0,850l150,0l0,-150l-150,0M0,250l150,0l0,-150l-150,0M800,250l150,0l0,-150l-150,0M800,850l150,0l0,-150l-150,0M200,150l150,0l0,-150l-150,0M400,150l150,0l0,-150l-150,0M0,650l150,0l0,-150l-150,0M600,150l150,0l0,-150l-150,0M800,650l150,0l0,-150l-150,0M400,1350l150,0l0,-150l-150,0M0,1250l150,0l0,-150l-150,0M0,1050l150,0l0,-150l-150,0M0,450l150,0l0,-150l-150,0M800,1050l150,0l0,-150l-150,0M800,450l150,0l0,-150l-150,0M600,350l150,0l0,-150l-150,0z"
       id="glyph565" /><glyph
       unicode="R"
       horiz-adv-x="1200"
       d="M0,1350l150,0l0,-150l-150,0M400,1350l150,0l0,-150l-150,0M0,950l150,0l0,-150l-150,0M0,550l150,0l0,-150l-150,0M400,550l150,0l0,-150l-150,0M0,350l150,0l0,-150l-150,0M600,350l150,0l0,-150l-150,0M800,1250l150,0l0,-150l-150,0M800,850l150,0l0,-150l-150,0M0,150l150,0l0,-150l-150,0M800,150l150,0l0,-150l-150,0M0,750l150,0l0,-150l-150,0M200,750l150,0l0,-150l-150,0M200,1350l150,0l0,-150l-150,0M0,1150l150,0l0,-150l-150,0M400,750l150,0l0,-150l-150,0M600,750l150,0l0,-150l-150,0M600,1350l150,0l0,-150l-150,0M800,1050l150,0l0,-150l-150,0z"
       id="glyph567" /><glyph
       unicode="S"
       horiz-adv-x="1200"
       d="M200,1350l150,0l0,-150l-150,0M600,1350l150,0l0,-150l-150,0M800,1250l150,0l0,-150l-150,0M200,750l150,0l0,-150l-150,0M200,150l150,0l0,-150l-150,0M400,150l150,0l0,-150l-150,0M400,750l150,0l0,-150l-150,0M600,150l150,0l0,-150l-150,0M600,750l150,0l0,-150l-150,0M400,1350l150,0l0,-150l-150,0M0,1250l150,0l0,-150l-150,0M0,1050l150,0l0,-150l-150,0M800,650l150,0l0,-150l-150,0M800,450l150,0l0,-150l-150,0M0,850l150,0l0,-150l-150,0M0,250l150,0l0,-150l-150,0M800,250l150,0l0,-150l-150,0z"
       id="glyph569" /><glyph
       unicode="T"
       horiz-adv-x="1200"
       d="M0,1350l150,0l0,-150l-150,0M400,1350l150,0l0,-150l-150,0M800,1350l150,0l0,-150l-150,0M400,750l150,0l0,-150l-150,0M400,550l150,0l0,-150l-150,0M400,350l150,0l0,-150l-150,0M200,1350l150,0l0,-150l-150,0M400,1150l150,0l0,-150l-150,0M400,150l150,0l0,-150l-150,0M600,1350l150,0l0,-150l-150,0M400,950l150,0l0,-150l-150,0z"
       id="glyph571" /><glyph
       unicode="U"
       horiz-adv-x="1200"
       d="M0,1350l150,0l0,-150l-150,0M0,1150l150,0l0,-150l-150,0M800,750l150,0l0,-150l-150,0M600,150l150,0l0,-150l-150,0M0,950l150,0l0,-150l-150,0M0,550l150,0l0,-150l-150,0M800,550l150,0l0,-150l-150,0M800,950l150,0l0,-150l-150,0M800,1350l150,0l0,-150l-150,0M800,1150l150,0l0,-150l-150,0M0,350l150,0l0,-150l-150,0M800,350l150,0l0,-150l-150,0M0,750l150,0l0,-150l-150,0M200,150l150,0l0,-150l-150,0M400,150l150,0l0,-150l-150,0z"
       id="glyph573" /><glyph
       unicode="V"
       horiz-adv-x="1200"
       d="M0,1350l150,0l0,-150l-150,0M0,1150l150,0l0,-150l-150,0M800,750l150,0l0,-150l-150,0M0,950l150,0l0,-150l-150,0M0,550l150,0l0,-150l-150,0M800,550l150,0l0,-150l-150,0M800,950l150,0l0,-150l-150,0M800,1350l150,0l0,-150l-150,0M800,1150l150,0l0,-150l-150,0M200,350l150,0l0,-150l-150,0M600,350l150,0l0,-150l-150,0M0,750l150,0l0,-150l-150,0M400,150l150,0l0,-150l-150,0z"
       id="glyph575" /><glyph
       unicode="W"
       horiz-adv-x="1200"
       d="M0,1350l150,0l0,-150l-150,0M0,1150l150,0l0,-150l-150,0M0,750l150,0l0,-150l-150,0M800,350l150,0l0,-150l-150,0M800,750l150,0l0,-150l-150,0M400,200l150,0l0,-150l-150,0M200,150l150,0l0,-150l-150,0M0,950l150,0l0,-150l-150,0M600,150l150,0l0,-150l-150,0M800,950l150,0l0,-150l-150,0M400,600l150,0l0,-150l-150,0M0,550l150,0l0,-150l-150,0M800,1350l150,0l0,-150l-150,0M800,1150l150,0l0,-150l-150,0M800,550l150,0l0,-150l-150,0M400,800l150,0l0,-150l-150,0M400,400l150,0l0,-150l-150,0M0,350l150,0l0,-150l-150,0z"
       id="glyph577" /><glyph
       unicode="X"
       horiz-adv-x="1200"
       d="M0,1350l150,0l0,-150l-150,0M0,1150l150,0l0,-150l-150,0M100,950l150,0l0,-150l-150,0M100,550l150,0l0,-150l-150,0M700,950l150,0l0,-150l-150,0M700,550l150,0l0,-150l-150,0M0,350l150,0l0,-150l-150,0M800,1350l150,0l0,-150l-150,0M800,1150l150,0l0,-150l-150,0M800,350l150,0l0,-150l-150,0M300,750l150,0l0,-150l-150,0M0,150l150,0l0,-150l-150,0M800,150l150,0l0,-150l-150,0M500,750l150,0l0,-150l-150,0z"
       id="glyph579" /><glyph
       unicode="Y"
       horiz-adv-x="1200"
       d="M0,1350l150,0l0,-150l-150,0M0,1150l150,0l0,-150l-150,0M600,850l150,0l0,-150l-150,0M0,950l150,0l0,-150l-150,0M400,750l150,0l0,-150l-150,0M800,950l150,0l0,-150l-150,0M400,550l150,0l0,-150l-150,0M800,1350l150,0l0,-150l-150,0M800,1150l150,0l0,-150l-150,0M400,350l150,0l0,-150l-150,0M200,850l150,0l0,-150l-150,0M400,150l150,0l0,-150l-150,0z"
       id="glyph581" /><glyph
       unicode="Z"
       horiz-adv-x="1200"
       d="M0,1350l150,0l0,-150l-150,0M400,1350l150,0l0,-150l-150,0M800,1350l150,0l0,-150l-150,0M400,750l150,0l0,-150l-150,0M200,550l150,0l0,-150l-150,0M0,350l150,0l0,-150l-150,0M200,1350l150,0l0,-150l-150,0M800,1150l150,0l0,-150l-150,0M0,150l150,0l0,-150l-150,0M200,150l150,0l0,-150l-150,0M400,150l150,0l0,-150l-150,0M600,1350l150,0l0,-150l-150,0M600,150l150,0l0,-150l-150,0M800,150l150,0l0,-150l-150,0M600,950l150,0l0,-150l-150,0z"
       id="glyph583" /><glyph
       unicode="["
       horiz-adv-x="800"
       d="M0,1350l150,0l0,-150l-150,0M400,1350l150,0l0,-150l-150,0M0,1150l150,0l0,-150l-150,0M0,350l150,0l0,-150l-150,0M0,150l150,0l0,-150l-150,0M0,950l150,0l0,-150l-150,0M200,150l150,0l0,-150l-150,0M400,150l150,0l0,-150l-150,0M200,1350l150,0l0,-150l-150,0M0,750l150,0l0,-150l-150,0M0,550l150,0l0,-150l-150,0z"
       id="glyph585" /><glyph
       unicode="\"
       horiz-adv-x="1400"
       d="M0,1150l150,0l0,-150l-150,0M400,750l150,0l0,-150l-150,0M800,350l150,0l0,-150l-150,0M200,950l150,0l0,-150l-150,0M1000,150l150,0l0,-150l-150,0M600,550l150,0l0,-150l-150,0z"
       id="glyph587" /><glyph
       unicode="]"
       horiz-adv-x="800"
       d="M0,1350l150,0l0,-150l-150,0M400,1350l150,0l0,-150l-150,0M400,1150l150,0l0,-150l-150,0M400,350l150,0l0,-150l-150,0M400,950l150,0l0,-150l-150,0M0,150l150,0l0,-150l-150,0M200,150l150,0l0,-150l-150,0M400,150l150,0l0,-150l-150,0M200,1350l150,0l0,-150l-150,0M400,750l150,0l0,-150l-150,0M400,550l150,0l0,-150l-150,0z"
       id="glyph589" /><glyph
       unicode="^"
       horiz-adv-x="1200"
       d="M400,950l150,0l0,-150l-150,0M600,750l150,0l0,-150l-150,0M0,550l150,0l0,-150l-150,0M800,550l150,0l0,-150l-150,0M200,750l150,0l0,-150l-150,0z"
       id="glyph591" /><glyph
       unicode="_"
       horiz-adv-x="1200"
       d="M0,150l150,0l0,-150l-150,0M400,150l150,0l0,-150l-150,0M800,150l150,0l0,-150l-150,0M200,150l150,0l0,-150l-150,0M600,150l150,0l0,-150l-150,0z"
       id="glyph593" /><glyph
       unicode="`"
       horiz-adv-x="800"
       d="M0,1350l150,0l0,-150l-150,0M400,950l150,0l0,-150l-150,0M200,1150l150,0l0,-150l-150,0z"
       id="glyph595" /><glyph
       unicode="a"
       horiz-adv-x="1000"
       d="M200,950l150,0l0,-150l-150,0M0,850l150,0l0,-150l-150,0M0,450l150,0l0,-150l-150,0M600,450l150,0l0,-150l-150,0M600,650l150,0l0,-150l-150,0M0,250l150,0l0,-150l-150,0M600,250l150,0l0,-150l-150,0M400,950l150,0l0,-150l-150,0M600,850l150,0l0,-150l-150,0M200,550l150,0l0,-150l-150,0M400,550l150,0l0,-150l-150,0M200,150l150,0l0,-150l-150,0M400,150l150,0l0,-150l-150,0z"
       id="glyph597" /><glyph
       unicode="b"
       horiz-adv-x="1000"
       d="M0,1350l150,0l0,-150l-150,0M0,950l150,0l0,-150l-150,0M600,650l150,0l0,-150l-150,0M0,550l150,0l0,-150l-150,0M600,450l150,0l0,-150l-150,0M0,1150l150,0l0,-150l-150,0M200,950l150,0l0,-150l-150,0M0,350l150,0l0,-150l-150,0M600,850l150,0l0,-150l-150,0M600,250l150,0l0,-150l-150,0M400,950l150,0l0,-150l-150,0M0,150l150,0l0,-150l-150,0M0,750l150,0l0,-150l-150,0M200,150l150,0l0,-150l-150,0M400,150l150,0l0,-150l-150,0z"
       id="glyph599" /><glyph
       unicode="c"
       horiz-adv-x="1000"
       d="M200,950l150,0l0,-150l-150,0M0,850l150,0l0,-150l-150,0M600,250l150,0l0,-150l-150,0M200,150l150,0l0,-150l-150,0M0,650l150,0l0,-150l-150,0M400,150l150,0l0,-150l-150,0M400,950l150,0l0,-150l-150,0M600,850l150,0l0,-150l-150,0M0,450l150,0l0,-150l-150,0M0,250l150,0l0,-150l-150,0z"
       id="glyph601" /><glyph
       unicode="d"
       horiz-adv-x="1000"
       d="M600,1350l150,0l0,-150l-150,0M200,950l150,0l0,-150l-150,0M0,650l150,0l0,-150l-150,0M0,850l150,0l0,-150l-150,0M600,550l150,0l0,-150l-150,0M0,450l150,0l0,-150l-150,0M600,1150l150,0l0,-150l-150,0M400,950l150,0l0,-150l-150,0M600,350l150,0l0,-150l-150,0M0,250l150,0l0,-150l-150,0M600,950l150,0l0,-150l-150,0M200,150l150,0l0,-150l-150,0M600,750l150,0l0,-150l-150,0M400,150l150,0l0,-150l-150,0M600,150l150,0l0,-150l-150,0z"
       id="glyph603" /><glyph
       unicode="e"
       horiz-adv-x="1000"
       d="M200,950l150,0l0,-150l-150,0M0,850l150,0l0,-150l-150,0M0,450l150,0l0,-150l-150,0M0,650l150,0l0,-150l-150,0M600,650l150,0l0,-150l-150,0M0,250l150,0l0,-150l-150,0M600,250l150,0l0,-150l-150,0M400,950l150,0l0,-150l-150,0M600,850l150,0l0,-150l-150,0M200,150l150,0l0,-150l-150,0M400,150l150,0l0,-150l-150,0M200,550l150,0l0,-150l-150,0M400,550l150,0l0,-150l-150,0z"
       id="glyph605" /><glyph
       unicode="f"
       horiz-adv-x="1000"
       d="M400,1350l150,0l0,-150l-150,0M200,1150l150,0l0,-150l-150,0M200,950l150,0l0,-150l-150,0M200,550l150,0l0,-150l-150,0M400,950l150,0l0,-150l-150,0M200,350l150,0l0,-150l-150,0M200,150l150,0l0,-150l-150,0M600,1250l150,0l0,-150l-150,0M0,950l150,0l0,-150l-150,0M200,750l150,0l0,-150l-150,0z"
       id="glyph607" /><glyph
       unicode="g"
       horiz-adv-x="1000"
       d="M200,950l150,0l0,-150l-150,0M600,950l150,0l0,-150l-150,0M0,450l150,0l0,-150l-150,0M200,-250l150,0l0,-150l-150,0M400,-250l150,0l0,-150l-150,0M600,350l150,0l0,-150l-150,0M600,750l150,0l0,-150l-150,0M0,250l150,0l0,-150l-150,0M0,650l150,0l0,-150l-150,0M400,950l150,0l0,-150l-150,0M0,850l150,0l0,-150l-150,0M200,150l150,0l0,-150l-150,0M400,150l150,0l0,-150l-150,0M600,150l150,0l0,-150l-150,0M600,550l150,0l0,-150l-150,0M600,-50l150,0l0,-150l-150,0z"
       id="glyph609" /><glyph
       unicode="h"
       horiz-adv-x="1000"
       d="M0,1350l150,0l0,-150l-150,0M0,950l150,0l0,-150l-150,0M0,550l150,0l0,-150l-150,0M600,550l150,0l0,-150l-150,0M0,350l150,0l0,-150l-150,0M600,350l150,0l0,-150l-150,0M0,1150l150,0l0,-150l-150,0M200,950l150,0l0,-150l-150,0M0,750l150,0l0,-150l-150,0M0,150l150,0l0,-150l-150,0M400,950l150,0l0,-150l-150,0M600,750l150,0l0,-150l-150,0M600,150l150,0l0,-150l-150,0z"
       id="glyph611" /><glyph
       unicode="i"
       horiz-adv-x="800"
       d="M200,1350l150,0l0,-150l-150,0M200,950l150,0l0,-150l-150,0M200,750l150,0l0,-150l-150,0M200,150l150,0l0,-150l-150,0M400,150l150,0l0,-150l-150,0M200,550l150,0l0,-150l-150,0M0,950l150,0l0,-150l-150,0M200,350l150,0l0,-150l-150,0M0,150l150,0l0,-150l-150,0z"
       id="glyph613" /><glyph
       unicode="j"
       horiz-adv-x="800"
       d="M200,1350l150,0l0,-150l-150,0M200,950l150,0l0,-150l-150,0M400,150l150,0l0,-150l-150,0M400,950l150,0l0,-150l-150,0M400,750l150,0l0,-150l-150,0M400,-50l150,0l0,-150l-150,0M0,-250l150,0l0,-150l-150,0M200,-250l150,0l0,-150l-150,0M0,950l150,0l0,-150l-150,0M400,550l150,0l0,-150l-150,0M400,350l150,0l0,-150l-150,0z"
       id="glyph615" /><glyph
       unicode="k"
       horiz-adv-x="1000"
       d="M0,1350l150,0l0,-150l-150,0M0,950l150,0l0,-150l-150,0M200,550l150,0l0,-150l-150,0M0,750l150,0l0,-150l-150,0M0,350l150,0l0,-150l-150,0M400,350l150,0l0,-150l-150,0M400,750l150,0l0,-150l-150,0M0,1150l150,0l0,-150l-150,0M600,950l150,0l0,-150l-150,0M0,150l150,0l0,-150l-150,0M600,150l150,0l0,-150l-150,0M0,550l150,0l0,-150l-150,0z"
       id="glyph617" /><glyph
       unicode="l"
       horiz-adv-x="800"
       d="M0,1350l150,0l0,-150l-150,0M200,1150l150,0l0,-150l-150,0M200,950l150,0l0,-150l-150,0M0,150l150,0l0,-150l-150,0M200,150l150,0l0,-150l-150,0M400,150l150,0l0,-150l-150,0M200,750l150,0l0,-150l-150,0M200,1350l150,0l0,-150l-150,0M200,550l150,0l0,-150l-150,0M200,350l150,0l0,-150l-150,0z"
       id="glyph619" /><glyph
       unicode="m"
       horiz-adv-x="1200"
       d="M0,950l150,0l0,-150l-150,0M400,950l150,0l0,-150l-150,0M0,550l150,0l0,-150l-150,0M400,150l150,0l0,-150l-150,0M800,150l150,0l0,-150l-150,0M400,550l150,0l0,-150l-150,0M800,550l150,0l0,-150l-150,0M0,750l150,0l0,-150l-150,0M400,750l150,0l0,-150l-150,0M200,950l150,0l0,-150l-150,0M800,750l150,0l0,-150l-150,0M0,350l150,0l0,-150l-150,0M400,350l150,0l0,-150l-150,0M800,350l150,0l0,-150l-150,0M600,950l150,0l0,-150l-150,0M0,150l150,0l0,-150l-150,0z"
       id="glyph621" /><glyph
       unicode="n"
       horiz-adv-x="1000"
       d="M0,950l150,0l0,-150l-150,0M200,850l150,0l0,-150l-150,0M600,750l150,0l0,-150l-150,0M0,350l150,0l0,-150l-150,0M600,350l150,0l0,-150l-150,0M0,150l150,0l0,-150l-150,0M600,150l150,0l0,-150l-150,0M400,950l150,0l0,-150l-150,0M0,550l150,0l0,-150l-150,0M600,550l150,0l0,-150l-150,0M0,750l150,0l0,-150l-150,0z"
       id="glyph623" /><glyph
       unicode="o"
       horiz-adv-x="1000"
       d="M200,950l150,0l0,-150l-150,0M0,850l150,0l0,-150l-150,0M600,450l150,0l0,-150l-150,0M0,650l150,0l0,-150l-150,0M0,250l150,0l0,-150l-150,0M600,250l150,0l0,-150l-150,0M600,650l150,0l0,-150l-150,0M400,950l150,0l0,-150l-150,0M600,850l150,0l0,-150l-150,0M200,150l150,0l0,-150l-150,0M400,150l150,0l0,-150l-150,0M0,450l150,0l0,-150l-150,0z"
       id="glyph625" /><glyph
       unicode="p"
       horiz-adv-x="1000"
       d="M0,950l150,0l0,-150l-150,0M400,950l150,0l0,-150l-150,0M600,850l150,0l0,-150l-150,0M600,450l150,0l0,-150l-150,0M0,-250l150,0l0,-150l-150,0M0,350l150,0l0,-150l-150,0M0,750l150,0l0,-150l-150,0M600,250l150,0l0,-150l-150,0M200,950l150,0l0,-150l-150,0M600,650l150,0l0,-150l-150,0M0,150l150,0l0,-150l-150,0M200,150l150,0l0,-150l-150,0M400,150l150,0l0,-150l-150,0M0,550l150,0l0,-150l-150,0M0,-50l150,0l0,-150l-150,0z"
       id="glyph627" /><glyph
       unicode="q"
       horiz-adv-x="1000"
       d="M200,950l150,0l0,-150l-150,0M600,950l150,0l0,-150l-150,0M0,450l150,0l0,-150l-150,0M600,-250l150,0l0,-150l-150,0M600,750l150,0l0,-150l-150,0M600,350l150,0l0,-150l-150,0M0,250l150,0l0,-150l-150,0M400,950l150,0l0,-150l-150,0M0,850l150,0l0,-150l-150,0M0,650l150,0l0,-150l-150,0M200,150l150,0l0,-150l-150,0M400,150l150,0l0,-150l-150,0M600,150l150,0l0,-150l-150,0M600,550l150,0l0,-150l-150,0M600,-50l150,0l0,-150l-150,0z"
       id="glyph629" /><glyph
       unicode="r"
       horiz-adv-x="1000"
       d="M0,950l150,0l0,-150l-150,0M200,850l150,0l0,-150l-150,0M0,750l150,0l0,-150l-150,0M0,150l150,0l0,-150l-150,0M400,950l150,0l0,-150l-150,0M600,850l150,0l0,-150l-150,0M0,550l150,0l0,-150l-150,0M0,350l150,0l0,-150l-150,0z"
       id="glyph631" /><glyph
       unicode="s"
       horiz-adv-x="1000"
       d="M200,950l150,0l0,-150l-150,0M0,850l150,0l0,-150l-150,0M600,450l150,0l0,-150l-150,0M0,650l150,0l0,-150l-150,0M0,250l150,0l0,-150l-150,0M600,250l150,0l0,-150l-150,0M400,950l150,0l0,-150l-150,0M600,850l150,0l0,-150l-150,0M200,150l150,0l0,-150l-150,0M400,150l150,0l0,-150l-150,0M200,550l150,0l0,-150l-150,0M400,550l150,0l0,-150l-150,0z"
       id="glyph633" /><glyph
       unicode="t"
       horiz-adv-x="1000"
       d="M200,1350l150,0l0,-150l-150,0M0,950l150,0l0,-150l-150,0M200,350l150,0l0,-150l-150,0M600,250l150,0l0,-150l-150,0M400,150l150,0l0,-150l-150,0M200,1150l150,0l0,-150l-150,0M200,950l150,0l0,-150l-150,0M200,750l150,0l0,-150l-150,0M400,950l150,0l0,-150l-150,0M200,550l150,0l0,-150l-150,0z"
       id="glyph635" /><glyph
       unicode="u"
       horiz-adv-x="1000"
       d="M0,950l150,0l0,-150l-150,0M0,750l150,0l0,-150l-150,0M600,350l150,0l0,-150l-150,0M0,550l150,0l0,-150l-150,0M200,150l150,0l0,-150l-150,0M400,150l150,0l0,-150l-150,0M600,550l150,0l0,-150l-150,0M600,950l150,0l0,-150l-150,0M600,750l150,0l0,-150l-150,0M0,350l150,0l0,-150l-150,0z"
       id="glyph637" /><glyph
       unicode="v"
       horiz-adv-x="1000"
       d="M0,950l150,0l0,-150l-150,0M0,750l150,0l0,-150l-150,0M0,550l150,0l0,-150l-150,0M300,150l150,0l0,-150l-150,0M600,550l150,0l0,-150l-150,0M600,950l150,0l0,-150l-150,0M600,750l150,0l0,-150l-150,0M100,350l150,0l0,-150l-150,0M500,350l150,0l0,-150l-150,0z"
       id="glyph639" /><glyph
       unicode="w"
       horiz-adv-x="1200"
       d="M0,950l150,0l0,-150l-150,0M0,750l150,0l0,-150l-150,0M400,450l150,0l0,-150l-150,0M400,650l150,0l0,-150l-150,0M0,350l150,0l0,-150l-150,0M800,350l150,0l0,-150l-150,0M800,950l150,0l0,-150l-150,0M800,750l150,0l0,-150l-150,0M0,550l150,0l0,-150l-150,0M400,250l150,0l0,-150l-150,0M200,150l150,0l0,-150l-150,0M800,550l150,0l0,-150l-150,0M600,150l150,0l0,-150l-150,0z"
       id="glyph641" /><glyph
       unicode="x"
       horiz-adv-x="1000"
       d="M0,950l150,0l0,-150l-150,0M0,750l150,0l0,-150l-150,0M600,350l150,0l0,-150l-150,0M200,550l150,0l0,-150l-150,0M0,150l150,0l0,-150l-150,0M600,150l150,0l0,-150l-150,0M400,550l150,0l0,-150l-150,0M600,950l150,0l0,-150l-150,0M600,750l150,0l0,-150l-150,0M0,350l150,0l0,-150l-150,0z"
       id="glyph643" /><glyph
       unicode="y"
       horiz-adv-x="1000"
       d="M0,950l150,0l0,-150l-150,0M0,750l150,0l0,-150l-150,0M600,350l150,0l0,-150l-150,0M0,550l150,0l0,-150l-150,0M200,150l150,0l0,-150l-150,0M400,150l150,0l0,-150l-150,0M600,550l150,0l0,-150l-150,0M600,150l150,0l0,-150l-150,0M600,950l150,0l0,-150l-150,0M600,750l150,0l0,-150l-150,0M600,-50l150,0l0,-150l-150,0M0,350l150,0l0,-150l-150,0M200,-250l150,0l0,-150l-150,0M400,-250l150,0l0,-150l-150,0z"
       id="glyph645" /><glyph
       unicode="z"
       horiz-adv-x="1000"
       d="M0,950l150,0l0,-150l-150,0M400,950l150,0l0,-150l-150,0M0,350l150,0l0,-150l-150,0M0,150l150,0l0,-150l-150,0M600,750l150,0l0,-150l-150,0M200,150l150,0l0,-150l-150,0M400,150l150,0l0,-150l-150,0M600,150l150,0l0,-150l-150,0M200,950l150,0l0,-150l-150,0M200,550l150,0l0,-150l-150,0M400,550l150,0l0,-150l-150,0M600,950l150,0l0,-150l-150,0z"
       id="glyph647" /><glyph
       unicode="{"
       horiz-adv-x="1000"
       d="M400,1350l150,0l0,-150l-150,0M200,1250l150,0l0,-150l-150,0M200,450l150,0l0,-150l-150,0M200,850l150,0l0,-150l-150,0M200,250l150,0l0,-150l-150,0M400,150l150,0l0,-150l-150,0M600,150l150,0l0,-150l-150,0M600,1350l150,0l0,-150l-150,0M0,750l150,0l0,-150l-150,0M200,1050l150,0l0,-150l-150,0M200,650l150,0l0,-150l-150,0z"
       id="glyph649" /><glyph
       unicode="|"
       horiz-adv-x="400"
       d="M0,1350l150,0l0,-150l-150,0M0,1150l150,0l0,-150l-150,0M0,550l150,0l0,-150l-150,0M0,950l150,0l0,-150l-150,0M0,750l150,0l0,-150l-150,0M0,350l150,0l0,-150l-150,0M0,150l150,0l0,-150l-150,0z"
       id="glyph651" /><glyph
       unicode="}"
       horiz-adv-x="1000"
       d="M0,1350l150,0l0,-150l-150,0M400,1250l150,0l0,-150l-150,0M400,1050l150,0l0,-150l-150,0M400,450l150,0l0,-150l-150,0M400,250l150,0l0,-150l-150,0M400,850l150,0l0,-150l-150,0M0,150l150,0l0,-150l-150,0M200,150l150,0l0,-150l-150,0M200,1350l150,0l0,-150l-150,0M600,750l150,0l0,-150l-150,0M400,650l150,0l0,-150l-150,0z"
       id="glyph653" /><glyph
       unicode="~"
       horiz-adv-x="1400"
       d="M200,750l150,0l0,-150l-150,0M1000,750l150,0l0,-150l-150,0M600,550l150,0l0,-150l-150,0M800,550l150,0l0,-150l-150,0M400,750l150,0l0,-150l-150,0M0,550l150,0l0,-150l-150,0z"
       id="glyph655" /><glyph
       unicode="Ђ"
       horiz-adv-x="1400"
       d="M0,1350l150,0l0,-150l-150,0M400,1350l150,0l0,-150l-150,0M200,950l150,0l0,-150l-150,0M1000,250l150,0l0,-150l-150,0M1000,850l150,0l0,-150l-150,0M200,150l150,0l0,-150l-150,0M600,150l150,0l0,-150l-150,0M800,150l150,0l0,-150l-150,0M400,950l150,0l0,-150l-150,0M200,750l150,0l0,-150l-150,0M600,950l150,0l0,-150l-150,0M200,1350l150,0l0,-150l-150,0M800,950l150,0l0,-150l-150,0M1000,650l150,0l0,-150l-150,0M200,550l150,0l0,-150l-150,0M200,1150l150,0l0,-150l-150,0M1000,450l150,0l0,-150l-150,0M200,350l150,0l0,-150l-150,0z"
       id="glyph657" /><glyph
       unicode="Ѓ"
       horiz-adv-x="1200"
       d="M600,1850l150,0l0,-150l-150,0M400,1750l150,0l0,-150l-150,0M600,1350l150,0l0,-150l-150,0M0,1150l150,0l0,-150l-150,0M800,1350l150,0l0,-150l-150,0M0,950l150,0l0,-150l-150,0M0,1350l150,0l0,-150l-150,0M0,750l150,0l0,-150l-150,0M200,1350l150,0l0,-150l-150,0M0,550l150,0l0,-150l-150,0M0,350l150,0l0,-150l-150,0M400,1350l150,0l0,-150l-150,0M0,150l150,0l0,-150l-150,0z"
       id="glyph659" /><glyph
       unicode="‚"
       horiz-adv-x="600"
       d="M0,150l150,0l0,-150l-150,0M200,-150l150,0l0,-150l-150,0M200,50l150,0l0,-150l-150,0z"
       id="glyph661" /><glyph
       unicode="ѓ"
       horiz-adv-x="1000"
       d="M500,1450l150,0l0,-150l-150,0M300,1350l150,0l0,-150l-150,0M600,950l150,0l0,-150l-150,0M0,550l150,0l0,-150l-150,0M0,350l150,0l0,-150l-150,0M0,950l150,0l0,-150l-150,0M0,150l150,0l0,-150l-150,0M200,950l150,0l0,-150l-150,0M400,950l150,0l0,-150l-150,0M0,750l150,0l0,-150l-150,0z"
       id="glyph663" /><glyph
       unicode="„"
       horiz-adv-x="1200"
       d="M0,150l150,0l0,-150l-150,0M200,50l150,0l0,-150l-150,0M200,-150l150,0l0,-150l-150,0M800,-150l150,0l0,-150l-150,0M600,150l150,0l0,-150l-150,0M800,50l150,0l0,-150l-150,0z"
       id="glyph665" /><glyph
       unicode="…"
       horiz-adv-x="1200"
       d="M0,150l150,0l0,-150l-150,0M800,150l150,0l0,-150l-150,0M400,150l150,0l0,-150l-150,0z"
       id="glyph667" /><glyph
       unicode="†"
       horiz-adv-x="800"
       d="M200,1350l150,0l0,-150l-150,0M200,1150l150,0l0,-150l-150,0M200,350l150,0l0,-150l-150,0M200,150l150,0l0,-150l-150,0M400,1150l150,0l0,-150l-150,0M200,950l150,0l0,-150l-150,0M0,1150l150,0l0,-150l-150,0M200,750l150,0l0,-150l-150,0M200,550l150,0l0,-150l-150,0z"
       id="glyph669" /><glyph
       unicode="‡"
       horiz-adv-x="800"
       d="M200,1350l150,0l0,-150l-150,0M200,1150l150,0l0,-150l-150,0M0,350l150,0l0,-150l-150,0M200,350l150,0l0,-150l-150,0M400,350l150,0l0,-150l-150,0M400,1150l150,0l0,-150l-150,0M200,950l150,0l0,-150l-150,0M0,1150l150,0l0,-150l-150,0M200,750l150,0l0,-150l-150,0M200,150l150,0l0,-150l-150,0M200,550l150,0l0,-150l-150,0z"
       id="glyph671" /><glyph
       unicode="€"
       horiz-adv-x="1400"
       d="M400,1350l150,0l0,-150l-150,0M800,1350l150,0l0,-150l-150,0M1000,1250l150,0l0,-150l-150,0M200,250l150,0l0,-150l-150,0M1000,250l150,0l0,-150l-150,0M200,850l150,0l0,-150l-150,0M400,150l150,0l0,-150l-150,0M600,150l150,0l0,-150l-150,0M800,150l150,0l0,-150l-150,0M600,1350l150,0l0,-150l-150,0M200,1250l150,0l0,-150l-150,0M0,1050l150,0l0,-150l-150,0M200,650l150,0l0,-150l-150,0M200,1050l150,0l0,-150l-150,0M0,450l150,0l0,-150l-150,0M400,1050l150,0l0,-150l-150,0M200,450l150,0l0,-150l-150,0M400,450l150,0l0,-150l-150,0M600,1050l150,0l0,-150l-150,0M600,450l150,0l0,-150l-150,0z"
       id="glyph673" /><glyph
       unicode="‰"
       horiz-adv-x="1400"
       d="M0,1150l150,0l0,-150l-150,0M0,950l150,0l0,-150l-150,0M600,350l150,0l0,-150l-150,0M1000,350l150,0l0,-150l-150,0M600,750l150,0l0,-150l-150,0M0,150l150,0l0,-150l-150,0M600,150l150,0l0,-150l-150,0M1000,1150l150,0l0,-150l-150,0M800,950l150,0l0,-150l-150,0M400,550l150,0l0,-150l-150,0M1000,150l150,0l0,-150l-150,0M200,350l150,0l0,-150l-150,0z"
       id="glyph675" /><glyph
       unicode="Љ"
       horiz-adv-x="1600"
       d="M200,1350l150,0l0,-150l-150,0M600,1350l150,0l0,-150l-150,0M600,1150l150,0l0,-150l-150,0M0,750l150,0l0,-150l-150,0M1200,450l150,0l0,-150l-150,0M600,750l150,0l0,-150l-150,0M0,350l150,0l0,-150l-150,0M600,350l150,0l0,-150l-150,0M800,750l150,0l0,-150l-150,0M1000,750l150,0l0,-150l-150,0M1200,250l150,0l0,-150l-150,0M0,150l150,0l0,-150l-150,0M600,150l150,0l0,-150l-150,0M800,150l150,0l0,-150l-150,0M1000,150l150,0l0,-150l-150,0M400,1350l150,0l0,-150l-150,0M0,950l150,0l0,-150l-150,0M600,950l150,0l0,-150l-150,0M1200,650l150,0l0,-150l-150,0M0,1150l150,0l0,-150l-150,0M0,550l150,0l0,-150l-150,0M600,550l150,0l0,-150l-150,0z"
       id="glyph677" /><glyph
       unicode="‹"
       horiz-adv-x="800"
       d="M400,1150l150,0l0,-150l-150,0M0,750l150,0l0,-150l-150,0M200,550l150,0l0,-150l-150,0M400,350l150,0l0,-150l-150,0M200,950l150,0l0,-150l-150,0z"
       id="glyph679" /><glyph
       unicode="Њ"
       horiz-adv-x="1600"
       d="M0,1350l150,0l0,-150l-150,0M0,1150l150,0l0,-150l-150,0M400,750l150,0l0,-150l-150,0M600,750l150,0l0,-150l-150,0M800,750l150,0l0,-150l-150,0M1200,450l150,0l0,-150l-150,0M1000,750l150,0l0,-150l-150,0M0,350l150,0l0,-150l-150,0M600,350l150,0l0,-150l-150,0M0,950l150,0l0,-150l-150,0M1200,250l150,0l0,-150l-150,0M600,950l150,0l0,-150l-150,0M0,150l150,0l0,-150l-150,0M600,150l150,0l0,-150l-150,0M800,150l150,0l0,-150l-150,0M600,1350l150,0l0,-150l-150,0M600,1150l150,0l0,-150l-150,0M1000,150l150,0l0,-150l-150,0M0,750l150,0l0,-150l-150,0M1200,650l150,0l0,-150l-150,0M200,750l150,0l0,-150l-150,0M0,550l150,0l0,-150l-150,0M600,550l150,0l0,-150l-150,0z"
       id="glyph681" /><glyph
       unicode="Ќ"
       horiz-adv-x="1200"
       d="M600,1850l150,0l0,-150l-150,0M400,1750l150,0l0,-150l-150,0M0,750l150,0l0,-150l-150,0M0,150l150,0l0,-150l-150,0M800,150l150,0l0,-150l-150,0M0,1350l150,0l0,-150l-150,0M0,1150l150,0l0,-150l-150,0M200,750l150,0l0,-150l-150,0M600,1150l150,0l0,-150l-150,0M800,1350l150,0l0,-150l-150,0M0,550l150,0l0,-150l-150,0M400,550l150,0l0,-150l-150,0M0,950l150,0l0,-150l-150,0M0,350l150,0l0,-150l-150,0M400,950l150,0l0,-150l-150,0M600,350l150,0l0,-150l-150,0z"
       id="glyph683" /><glyph
       unicode="Ћ"
       horiz-adv-x="1400"
       d="M0,1350l150,0l0,-150l-150,0M400,1350l150,0l0,-150l-150,0M200,1150l150,0l0,-150l-150,0M200,150l150,0l0,-150l-150,0M1000,150l150,0l0,-150l-150,0M200,750l150,0l0,-150l-150,0M200,950l150,0l0,-150l-150,0M1000,750l150,0l0,-150l-150,0M400,950l150,0l0,-150l-150,0M200,1350l150,0l0,-150l-150,0M600,950l150,0l0,-150l-150,0M200,550l150,0l0,-150l-150,0M1000,550l150,0l0,-150l-150,0M800,950l150,0l0,-150l-150,0M200,350l150,0l0,-150l-150,0M1000,350l150,0l0,-150l-150,0z"
       id="glyph685" /><glyph
       unicode="Џ"
       horiz-adv-x="1200"
       d="M0,1350l150,0l0,-150l-150,0M0,1150l150,0l0,-150l-150,0M800,750l150,0l0,-150l-150,0M400,150l150,0l0,-150l-150,0M600,150l150,0l0,-150l-150,0M800,150l150,0l0,-150l-150,0M0,950l150,0l0,-150l-150,0M0,550l150,0l0,-150l-150,0M800,550l150,0l0,-150l-150,0M400,-50l150,0l0,-150l-150,0M800,950l150,0l0,-150l-150,0M800,1350l150,0l0,-150l-150,0M800,1150l150,0l0,-150l-150,0M0,350l150,0l0,-150l-150,0M800,350l150,0l0,-150l-150,0M0,750l150,0l0,-150l-150,0M0,150l150,0l0,-150l-150,0M200,150l150,0l0,-150l-150,0z"
       id="glyph687" /><glyph
       unicode="ђ"
       horiz-adv-x="1200"
       d="M200,1350l150,0l0,-150l-150,0M0,1250l150,0l0,-150l-150,0M200,950l150,0l0,-150l-150,0M800,850l150,0l0,-150l-150,0M200,150l150,0l0,-150l-150,0M200,750l150,0l0,-150l-150,0M800,50l150,0l0,-150l-150,0M500,-150l150,0l0,-150l-150,0M700,-150l150,0l0,-150l-150,0M400,950l150,0l0,-150l-150,0M800,650l150,0l0,-150l-150,0M600,950l150,0l0,-150l-150,0M200,550l150,0l0,-150l-150,0M400,1250l150,0l0,-150l-150,0M800,450l150,0l0,-150l-150,0M200,1150l150,0l0,-150l-150,0M200,350l150,0l0,-150l-150,0M800,250l150,0l0,-150l-150,0z"
       id="glyph689" /><glyph
       unicode="‘"
       horiz-adv-x="600"
       d="M0,1250l150,0l0,-150l-150,0M200,950l150,0l0,-150l-150,0M0,1050l150,0l0,-150l-150,0z"
       id="glyph691" /><glyph
       unicode="’"
       horiz-adv-x="600"
       d="M0,1350l150,0l0,-150l-150,0M200,1050l150,0l0,-150l-150,0M200,1250l150,0l0,-150l-150,0z"
       id="glyph693" /><glyph
       unicode="“"
       horiz-adv-x="1200"
       d="M0,1250l150,0l0,-150l-150,0M0,1050l150,0l0,-150l-150,0M200,950l150,0l0,-150l-150,0M800,950l150,0l0,-150l-150,0M600,1250l150,0l0,-150l-150,0M600,1050l150,0l0,-150l-150,0z"
       id="glyph695" /><glyph
       unicode="”"
       horiz-adv-x="1200"
       d="M0,1350l150,0l0,-150l-150,0M200,1250l150,0l0,-150l-150,0M200,1050l150,0l0,-150l-150,0M800,1050l150,0l0,-150l-150,0M600,1350l150,0l0,-150l-150,0M800,1250l150,0l0,-150l-150,0z"
       id="glyph697" /><glyph
       unicode="•"
       horiz-adv-x="600"
       d="M0,950l150,0l0,-150l-150,0M0,750l150,0l0,-150l-150,0M200,950l150,0l0,-150l-150,0M200,750l150,0l0,-150l-150,0z"
       id="glyph699" /><glyph
       unicode="–"
       horiz-adv-x="1200"
       d="M0,750l150,0l0,-150l-150,0M400,750l150,0l0,-150l-150,0M800,750l150,0l0,-150l-150,0M200,750l150,0l0,-150l-150,0M600,750l150,0l0,-150l-150,0z"
       id="glyph701" /><glyph
       unicode="—"
       horiz-adv-x="1400"
       d="M0,750l150,0l0,-150l-150,0M400,750l150,0l0,-150l-150,0M800,750l150,0l0,-150l-150,0M1000,750l150,0l0,-150l-150,0M200,750l150,0l0,-150l-150,0M600,750l150,0l0,-150l-150,0z"
       id="glyph703" /><glyph
       unicode="™"
       horiz-adv-x="1800"
       d="M0,1350l150,0l0,-150l-150,0M400,1350l150,0l0,-150l-150,0M1400,1350l150,0l0,-150l-150,0M200,750l150,0l0,-150l-150,0M600,750l150,0l0,-150l-150,0M1000,750l150,0l0,-150l-150,0M1400,750l150,0l0,-150l-150,0M200,950l150,0l0,-150l-150,0M600,950l150,0l0,-150l-150,0M200,550l150,0l0,-150l-150,0M600,550l150,0l0,-150l-150,0M1400,550l150,0l0,-150l-150,0M800,950l150,0l0,-150l-150,0M1200,950l150,0l0,-150l-150,0M200,1350l150,0l0,-150l-150,0M200,1150l150,0l0,-150l-150,0M1400,950l150,0l0,-150l-150,0M600,1350l150,0l0,-150l-150,0M600,1150l150,0l0,-150l-150,0M1400,1150l150,0l0,-150l-150,0z"
       id="glyph705" /><glyph
       unicode="љ"
       horiz-adv-x="1600"
       d="M200,950l150,0l0,-150l-150,0M600,950l150,0l0,-150l-150,0M600,750l150,0l0,-150l-150,0M600,150l150,0l0,-150l-150,0M800,150l150,0l0,-150l-150,0M1000,150l150,0l0,-150l-150,0M1200,450l150,0l0,-150l-150,0M0,350l150,0l0,-150l-150,0M400,950l150,0l0,-150l-150,0M0,550l150,0l0,-150l-150,0M600,350l150,0l0,-150l-150,0M600,550l150,0l0,-150l-150,0M0,750l150,0l0,-150l-150,0M800,550l150,0l0,-150l-150,0M1200,250l150,0l0,-150l-150,0M1000,550l150,0l0,-150l-150,0M0,150l150,0l0,-150l-150,0z"
       id="glyph707" /><glyph
       unicode="›"
       horiz-adv-x="800"
       d="M0,1150l150,0l0,-150l-150,0M400,750l150,0l0,-150l-150,0M200,550l150,0l0,-150l-150,0M0,350l150,0l0,-150l-150,0M200,950l150,0l0,-150l-150,0z"
       id="glyph709" /><glyph
       unicode="њ"
       horiz-adv-x="1600"
       d="M0,950l150,0l0,-150l-150,0M0,750l150,0l0,-150l-150,0M0,150l150,0l0,-150l-150,0M600,150l150,0l0,-150l-150,0M800,150l150,0l0,-150l-150,0M1000,150l150,0l0,-150l-150,0M0,550l150,0l0,-150l-150,0M200,550l150,0l0,-150l-150,0M600,950l150,0l0,-150l-150,0M600,750l150,0l0,-150l-150,0M400,550l150,0l0,-150l-150,0M1200,450l150,0l0,-150l-150,0M600,550l150,0l0,-150l-150,0M0,350l150,0l0,-150l-150,0M600,350l150,0l0,-150l-150,0M800,550l150,0l0,-150l-150,0M1000,550l150,0l0,-150l-150,0M1200,250l150,0l0,-150l-150,0z"
       id="glyph711" /><glyph
       unicode="ќ"
       horiz-adv-x="1000"
       d="M500,1450l150,0l0,-150l-150,0M300,1350l150,0l0,-150l-150,0M0,750l150,0l0,-150l-150,0M0,350l150,0l0,-150l-150,0M0,950l150,0l0,-150l-150,0M400,750l150,0l0,-150l-150,0M400,350l150,0l0,-150l-150,0M600,950l150,0l0,-150l-150,0M0,150l150,0l0,-150l-150,0M600,150l150,0l0,-150l-150,0M0,550l150,0l0,-150l-150,0M200,550l150,0l0,-150l-150,0z"
       id="glyph713" /><glyph
       unicode="ћ"
       horiz-adv-x="1200"
       d="M200,1350l150,0l0,-150l-150,0M0,1250l150,0l0,-150l-150,0M400,1250l150,0l0,-150l-150,0M200,750l150,0l0,-150l-150,0M200,150l150,0l0,-150l-150,0M800,150l150,0l0,-150l-150,0M800,750l150,0l0,-150l-150,0M200,950l150,0l0,-150l-150,0M400,950l150,0l0,-150l-150,0M200,550l150,0l0,-150l-150,0M800,550l150,0l0,-150l-150,0M200,1150l150,0l0,-150l-150,0M600,950l150,0l0,-150l-150,0M200,350l150,0l0,-150l-150,0M800,350l150,0l0,-150l-150,0z"
       id="glyph715" /><glyph
       unicode="џ"
       horiz-adv-x="1000"
       d="M0,950l150,0l0,-150l-150,0M0,750l150,0l0,-150l-150,0M600,350l150,0l0,-150l-150,0M0,550l150,0l0,-150l-150,0M0,150l150,0l0,-150l-150,0M200,150l150,0l0,-150l-150,0M600,550l150,0l0,-150l-150,0M400,150l150,0l0,-150l-150,0M600,150l150,0l0,-150l-150,0M600,950l150,0l0,-150l-150,0M600,750l150,0l0,-150l-150,0M0,350l150,0l0,-150l-150,0M300,-50l150,0l0,-150l-150,0z"
       id="glyph717" /><glyph
       unicode="Ў"
       horiz-adv-x="1200"
       d="M200,1850l150,0l0,-150l-150,0M400,1750l150,0l0,-150l-150,0M0,1350l150,0l0,-150l-150,0M0,950l150,0l0,-150l-150,0M400,350l150,0l0,-150l-150,0M400,150l150,0l0,-150l-150,0M800,1350l150,0l0,-150l-150,0M800,950l150,0l0,-150l-150,0M200,850l150,0l0,-150l-150,0M600,850l150,0l0,-150l-150,0M600,1850l150,0l0,-150l-150,0M0,1150l150,0l0,-150l-150,0M400,750l150,0l0,-150l-150,0M800,1150l150,0l0,-150l-150,0M400,550l150,0l0,-150l-150,0z"
       id="glyph719" /><glyph
       unicode="ў"
       horiz-adv-x="1000"
       d="M100,1450l150,0l0,-150l-150,0M300,1350l150,0l0,-150l-150,0M0,950l150,0l0,-150l-150,0M600,-50l150,0l0,-150l-150,0M600,950l150,0l0,-150l-150,0M0,550l150,0l0,-150l-150,0M200,-250l150,0l0,-150l-150,0M600,550l150,0l0,-150l-150,0M400,-250l150,0l0,-150l-150,0M0,350l150,0l0,-150l-150,0M600,350l150,0l0,-150l-150,0M500,1450l150,0l0,-150l-150,0M0,750l150,0l0,-150l-150,0M200,150l150,0l0,-150l-150,0M600,750l150,0l0,-150l-150,0M400,150l150,0l0,-150l-150,0M600,150l150,0l0,-150l-150,0z"
       id="glyph721" /><glyph
       unicode="Ј"
       horiz-adv-x="1200"
       d="M0,1350l150,0l0,-150l-150,0M400,1350l150,0l0,-150l-150,0M800,850l150,0l0,-150l-150,0M400,150l150,0l0,-150l-150,0M600,150l150,0l0,-150l-150,0M800,650l150,0l0,-150l-150,0M800,1250l150,0l0,-150l-150,0M0,450l150,0l0,-150l-150,0M800,450l150,0l0,-150l-150,0M200,1350l150,0l0,-150l-150,0M0,1150l150,0l0,-150l-150,0M0,250l150,0l0,-150l-150,0M600,1350l150,0l0,-150l-150,0M800,250l150,0l0,-150l-150,0M800,1050l150,0l0,-150l-150,0M200,150l150,0l0,-150l-150,0z"
       id="glyph723" /><glyph
       unicode="¤"
       horiz-adv-x="1200"
       d="M0,1150l150,0l0,-150l-150,0M400,1050l150,0l0,-150l-150,0M600,950l150,0l0,-150l-150,0M400,650l150,0l0,-150l-150,0M0,550l150,0l0,-150l-150,0M800,550l150,0l0,-150l-150,0M800,1150l150,0l0,-150l-150,0M200,750l150,0l0,-150l-150,0M600,750l150,0l0,-150l-150,0M200,950l150,0l0,-150l-150,0z"
       id="glyph725" /><glyph
       unicode="Ґ"
       horiz-adv-x="1200"
       d="M800,1550l150,0l0,-150l-150,0M200,1350l150,0l0,-150l-150,0M0,950l150,0l0,-150l-150,0M0,750l150,0l0,-150l-150,0M400,1350l150,0l0,-150l-150,0M0,550l150,0l0,-150l-150,0M0,350l150,0l0,-150l-150,0M0,1350l150,0l0,-150l-150,0M600,1350l150,0l0,-150l-150,0M0,150l150,0l0,-150l-150,0M800,1350l150,0l0,-150l-150,0M0,1150l150,0l0,-150l-150,0z"
       id="glyph727" /><glyph
       unicode="¦"
       horiz-adv-x="400"
       d="M0,1350l150,0l0,-150l-150,0M0,950l150,0l0,-150l-150,0M0,350l150,0l0,-150l-150,0M0,1150l150,0l0,-150l-150,0M0,150l150,0l0,-150l-150,0M0,550l150,0l0,-150l-150,0z"
       id="glyph729" /><glyph
       unicode="§"
       horiz-adv-x="1200"
       d="M200,1350l150,0l0,-150l-150,0M600,1350l150,0l0,-150l-150,0M800,1250l150,0l0,-150l-150,0M400,950l150,0l0,-150l-150,0M200,550l150,0l0,-150l-150,0M400,550l150,0l0,-150l-150,0M600,950l150,0l0,-150l-150,0M600,550l150,0l0,-150l-150,0M800,450l150,0l0,-150l-150,0M0,850l150,0l0,-150l-150,0M0,250l150,0l0,-150l-150,0M800,250l150,0l0,-150l-150,0M200,150l150,0l0,-150l-150,0M400,150l150,0l0,-150l-150,0M400,1350l150,0l0,-150l-150,0M0,1250l150,0l0,-150l-150,0M800,850l150,0l0,-150l-150,0M600,150l150,0l0,-150l-150,0M0,1050l150,0l0,-150l-150,0M0,650l150,0l0,-150l-150,0M200,950l150,0l0,-150l-150,0M800,650l150,0l0,-150l-150,0z"
       id="glyph731" /><glyph
       unicode="Ё"
       horiz-adv-x="1200"
       d="M200,1850l150,0l0,-150l-150,0M200,1350l150,0l0,-150l-150,0M800,1350l150,0l0,-150l-150,0M0,1050l150,0l0,-150l-150,0M0,450l150,0l0,-150l-150,0M0,250l150,0l0,-150l-150,0M200,150l150,0l0,-150l-150,0M400,150l150,0l0,-150l-150,0M600,150l150,0l0,-150l-150,0M0,850l150,0l0,-150l-150,0M800,150l150,0l0,-150l-150,0M200,750l150,0l0,-150l-150,0M400,750l150,0l0,-150l-150,0M600,1850l150,0l0,-150l-150,0M400,1350l150,0l0,-150l-150,0M600,750l150,0l0,-150l-150,0M0,1250l150,0l0,-150l-150,0M600,1350l150,0l0,-150l-150,0M0,650l150,0l0,-150l-150,0z"
       id="glyph733" /><glyph
       unicode="©"
       horiz-adv-x="1400"
       d="M200,1350l150,0l0,-150l-150,0M600,1350l150,0l0,-150l-150,0M0,1250l150,0l0,-150l-150,0M1000,1050l150,0l0,-150l-150,0M0,650l150,0l0,-150l-150,0M1000,650l150,0l0,-150l-150,0M300,550l150,0l0,-150l-150,0M700,550l150,0l0,-150l-150,0M1000,1250l150,0l0,-150l-150,0M300,950l150,0l0,-150l-150,0M0,450l150,0l0,-150l-150,0M700,950l150,0l0,-150l-150,0M500,450l150,0l0,-150l-150,0M1000,450l150,0l0,-150l-150,0M400,1350l150,0l0,-150l-150,0M0,850l150,0l0,-150l-150,0M0,250l150,0l0,-150l-150,0M1000,850l150,0l0,-150l-150,0M1000,250l150,0l0,-150l-150,0M200,150l150,0l0,-150l-150,0M800,1350l150,0l0,-150l-150,0M0,1050l150,0l0,-150l-150,0M400,150l150,0l0,-150l-150,0M600,150l150,0l0,-150l-150,0M800,150l150,0l0,-150l-150,0M500,1050l150,0l0,-150l-150,0M300,750l150,0l0,-150l-150,0z"
       id="glyph735" /><glyph
       unicode="Є"
       horiz-adv-x="1200"
       d="M200,1350l150,0l0,-150l-150,0M600,1350l150,0l0,-150l-150,0M800,1250l150,0l0,-150l-150,0M200,750l150,0l0,-150l-150,0M600,150l150,0l0,-150l-150,0M400,750l150,0l0,-150l-150,0M0,650l150,0l0,-150l-150,0M400,1350l150,0l0,-150l-150,0M0,1250l150,0l0,-150l-150,0M0,1050l150,0l0,-150l-150,0M0,450l150,0l0,-150l-150,0M0,250l150,0l0,-150l-150,0M800,250l150,0l0,-150l-150,0M0,850l150,0l0,-150l-150,0M200,150l150,0l0,-150l-150,0M400,150l150,0l0,-150l-150,0z"
       id="glyph737" /><glyph
       unicode="«"
       horiz-adv-x="1400"
       d="M400,1150l150,0l0,-150l-150,0M200,950l150,0l0,-150l-150,0M0,750l150,0l0,-150l-150,0M400,350l150,0l0,-150l-150,0M600,750l150,0l0,-150l-150,0M1000,350l150,0l0,-150l-150,0M1000,1150l150,0l0,-150l-150,0M800,950l150,0l0,-150l-150,0M200,550l150,0l0,-150l-150,0M800,550l150,0l0,-150l-150,0z"
       id="glyph739" /><glyph
       unicode="¬"
       horiz-adv-x="1200"
       d="M0,1350l150,0l0,-150l-150,0M400,1350l150,0l0,-150l-150,0M800,1350l150,0l0,-150l-150,0M200,1350l150,0l0,-150l-150,0M800,1150l150,0l0,-150l-150,0M600,1350l150,0l0,-150l-150,0z"
       id="glyph741" /><glyph
       unicode="­"
       horiz-adv-x="1000"
       d="M0,750l150,0l0,-150l-150,0M400,750l150,0l0,-150l-150,0M200,750l150,0l0,-150l-150,0M600,750l150,0l0,-150l-150,0z"
       id="glyph743" /><glyph
       unicode="®"
       horiz-adv-x="1400"
       d="M200,1350l150,0l0,-150l-150,0M600,1350l150,0l0,-150l-150,0M0,1250l150,0l0,-150l-150,0M300,1050l150,0l0,-150l-150,0M500,1050l150,0l0,-150l-150,0M0,650l150,0l0,-150l-150,0M300,650l150,0l0,-150l-150,0M1000,1050l150,0l0,-150l-150,0M500,650l150,0l0,-150l-150,0M1000,650l150,0l0,-150l-150,0M1000,1250l150,0l0,-150l-150,0M0,450l150,0l0,-150l-150,0M300,450l150,0l0,-150l-150,0M700,450l150,0l0,-150l-150,0M1000,450l150,0l0,-150l-150,0M400,1350l150,0l0,-150l-150,0M0,850l150,0l0,-150l-150,0M300,850l150,0l0,-150l-150,0M700,850l150,0l0,-150l-150,0M0,250l150,0l0,-150l-150,0M1000,250l150,0l0,-150l-150,0M800,1350l150,0l0,-150l-150,0M1000,850l150,0l0,-150l-150,0M200,150l150,0l0,-150l-150,0M400,150l150,0l0,-150l-150,0M0,1050l150,0l0,-150l-150,0M600,150l150,0l0,-150l-150,0M800,150l150,0l0,-150l-150,0z"
       id="glyph745" /><glyph
       unicode="Ї"
       horiz-adv-x="1200"
       d="M200,1850l150,0l0,-150l-150,0M0,1350l150,0l0,-150l-150,0M600,1350l150,0l0,-150l-150,0M400,1150l150,0l0,-150l-150,0M800,150l150,0l0,-150l-150,0M800,1350l150,0l0,-150l-150,0M400,950l150,0l0,-150l-150,0M400,750l150,0l0,-150l-150,0M600,1850l150,0l0,-150l-150,0M200,1350l150,0l0,-150l-150,0M400,550l150,0l0,-150l-150,0M400,350l150,0l0,-150l-150,0M400,1350l150,0l0,-150l-150,0M0,150l150,0l0,-150l-150,0M200,150l150,0l0,-150l-150,0M400,150l150,0l0,-150l-150,0M600,150l150,0l0,-150l-150,0z"
       id="glyph747" /><glyph
       unicode="°"
       horiz-adv-x="800"
       d="M200,1350l150,0l0,-150l-150,0M0,1250l150,0l0,-150l-150,0M400,1250l150,0l0,-150l-150,0M400,1050l150,0l0,-150l-150,0M200,950l150,0l0,-150l-150,0M0,1050l150,0l0,-150l-150,0z"
       id="glyph749" /><glyph
       unicode="±"
       horiz-adv-x="1200"
       d="M400,1350l150,0l0,-150l-150,0M0,950l150,0l0,-150l-150,0M600,950l150,0l0,-150l-150,0M400,750l150,0l0,-150l-150,0M800,950l150,0l0,-150l-150,0M400,550l150,0l0,-150l-150,0M0,150l150,0l0,-150l-150,0M200,150l150,0l0,-150l-150,0M400,1150l150,0l0,-150l-150,0M200,950l150,0l0,-150l-150,0M400,150l150,0l0,-150l-150,0M600,150l150,0l0,-150l-150,0M800,150l150,0l0,-150l-150,0M400,950l150,0l0,-150l-150,0z"
       id="glyph751" /><glyph
       unicode="І"
       horiz-adv-x="1200"
       d="M0,1350l150,0l0,-150l-150,0M400,1350l150,0l0,-150l-150,0M800,1350l150,0l0,-150l-150,0M400,750l150,0l0,-150l-150,0M400,550l150,0l0,-150l-150,0M400,350l150,0l0,-150l-150,0M200,1350l150,0l0,-150l-150,0M400,1150l150,0l0,-150l-150,0M0,150l150,0l0,-150l-150,0M200,150l150,0l0,-150l-150,0M400,150l150,0l0,-150l-150,0M600,1350l150,0l0,-150l-150,0M600,150l150,0l0,-150l-150,0M800,150l150,0l0,-150l-150,0M400,950l150,0l0,-150l-150,0z"
       id="glyph753" /><glyph
       unicode="і"
       horiz-adv-x="800"
       d="M200,1350l150,0l0,-150l-150,0M200,950l150,0l0,-150l-150,0M200,750l150,0l0,-150l-150,0M200,150l150,0l0,-150l-150,0M400,150l150,0l0,-150l-150,0M200,550l150,0l0,-150l-150,0M0,950l150,0l0,-150l-150,0M200,350l150,0l0,-150l-150,0M0,150l150,0l0,-150l-150,0z"
       id="glyph755" /><glyph
       unicode="ґ"
       horiz-adv-x="1000"
       d="M600,1150l150,0l0,-150l-150,0M200,950l150,0l0,-150l-150,0M0,350l150,0l0,-150l-150,0M0,150l150,0l0,-150l-150,0M400,950l150,0l0,-150l-150,0M0,950l150,0l0,-150l-150,0M600,950l150,0l0,-150l-150,0M0,750l150,0l0,-150l-150,0M0,550l150,0l0,-150l-150,0z"
       id="glyph757" /><glyph
       unicode="µ"
       horiz-adv-x="1200"
       d="M0,1150l150,0l0,-150l-150,0M0,950l150,0l0,-150l-150,0M0,350l150,0l0,-150l-150,0M0,-50l150,0l0,-150l-150,0M0,750l150,0l0,-150l-150,0M200,350l150,0l0,-150l-150,0M600,350l150,0l0,-150l-150,0M800,750l150,0l0,-150l-150,0M800,350l150,0l0,-150l-150,0M800,1150l150,0l0,-150l-150,0M800,950l150,0l0,-150l-150,0M0,550l150,0l0,-150l-150,0M0,150l150,0l0,-150l-150,0M800,550l150,0l0,-150l-150,0M400,150l150,0l0,-150l-150,0M800,150l150,0l0,-150l-150,0z"
       id="glyph759" /><glyph
       unicode="¶"
       horiz-adv-x="1200"
       d="M200,1350l150,0l0,-150l-150,0M600,1350l150,0l0,-150l-150,0M0,1250l150,0l0,-150l-150,0M0,1050l150,0l0,-150l-150,0M200,350l150,0l0,-150l-150,0M600,350l150,0l0,-150l-150,0M200,150l150,0l0,-150l-150,0M600,150l150,0l0,-150l-150,0M200,950l150,0l0,-150l-150,0M600,950l150,0l0,-150l-150,0M400,1350l150,0l0,-150l-150,0M200,1150l150,0l0,-150l-150,0M200,750l150,0l0,-150l-150,0M600,750l150,0l0,-150l-150,0M800,1350l150,0l0,-150l-150,0M600,1150l150,0l0,-150l-150,0M200,550l150,0l0,-150l-150,0M600,550l150,0l0,-150l-150,0z"
       id="glyph761" /><glyph
       unicode="·"
       horiz-adv-x="400"
       d="M0,750l150,0l0,-150l-150,0z"
       id="glyph763" /><glyph
       unicode="ё"
       horiz-adv-x="1000"
       d="M150,1350l150,0l0,-150l-150,0M200,950l150,0l0,-150l-150,0M0,850l150,0l0,-150l-150,0M600,650l150,0l0,-150l-150,0M400,150l150,0l0,-150l-150,0M200,550l150,0l0,-150l-150,0M600,850l150,0l0,-150l-150,0M400,550l150,0l0,-150l-150,0M450,1350l150,0l0,-150l-150,0M400,950l150,0l0,-150l-150,0M0,450l150,0l0,-150l-150,0M0,250l150,0l0,-150l-150,0M0,650l150,0l0,-150l-150,0M600,250l150,0l0,-150l-150,0M200,150l150,0l0,-150l-150,0z"
       id="glyph765" /><glyph
       unicode="№"
       horiz-adv-x="1600"
       d="M0,1350l150,0l0,-150l-150,0M1000,1350l150,0l0,-150l-150,0M800,950l150,0l0,-150l-150,0M0,350l150,0l0,-150l-150,0M800,350l150,0l0,-150l-150,0M0,1150l150,0l0,-150l-150,0M0,150l150,0l0,-150l-150,0M800,150l150,0l0,-150l-150,0M800,1150l150,0l0,-150l-150,0M0,750l150,0l0,-150l-150,0M400,750l150,0l0,-150l-150,0M800,1350l150,0l0,-150l-150,0M800,750l150,0l0,-150l-150,0M1200,1350l150,0l0,-150l-150,0M0,950l150,0l0,-150l-150,0M0,550l150,0l0,-150l-150,0M200,950l150,0l0,-150l-150,0M600,550l150,0l0,-150l-150,0M800,550l150,0l0,-150l-150,0z"
       id="glyph767" /><glyph
       unicode="є"
       horiz-adv-x="1200"
       d="M200,950l150,0l0,-150l-150,0M600,850l150,0l0,-150l-150,0M0,350l150,0l0,-150l-150,0M600,250l150,0l0,-150l-150,0M0,550l150,0l0,-150l-150,0M200,150l150,0l0,-150l-150,0M200,550l150,0l0,-150l-150,0M400,150l150,0l0,-150l-150,0M400,950l150,0l0,-150l-150,0M400,550l150,0l0,-150l-150,0M0,750l150,0l0,-150l-150,0z"
       id="glyph769" /><glyph
       unicode="»"
       horiz-adv-x="1400"
       d="M0,1150l150,0l0,-150l-150,0M200,950l150,0l0,-150l-150,0M0,350l150,0l0,-150l-150,0M400,750l150,0l0,-150l-150,0M600,350l150,0l0,-150l-150,0M1000,750l150,0l0,-150l-150,0M600,1150l150,0l0,-150l-150,0M800,950l150,0l0,-150l-150,0M200,550l150,0l0,-150l-150,0M800,550l150,0l0,-150l-150,0z"
       id="glyph771" /><glyph
       unicode="ј"
       horiz-adv-x="800"
       d="M200,1350l150,0l0,-150l-150,0M200,950l150,0l0,-150l-150,0M400,150l150,0l0,-150l-150,0M400,950l150,0l0,-150l-150,0M400,750l150,0l0,-150l-150,0M400,-50l150,0l0,-150l-150,0M0,-250l150,0l0,-150l-150,0M200,-250l150,0l0,-150l-150,0M0,950l150,0l0,-150l-150,0M400,550l150,0l0,-150l-150,0M400,350l150,0l0,-150l-150,0z"
       id="glyph773" /><glyph
       unicode="Ѕ"
       horiz-adv-x="1200"
       d="M200,1350l150,0l0,-150l-150,0M600,1350l150,0l0,-150l-150,0M800,1250l150,0l0,-150l-150,0M200,750l150,0l0,-150l-150,0M200,150l150,0l0,-150l-150,0M400,150l150,0l0,-150l-150,0M400,750l150,0l0,-150l-150,0M600,150l150,0l0,-150l-150,0M600,750l150,0l0,-150l-150,0M400,1350l150,0l0,-150l-150,0M0,1250l150,0l0,-150l-150,0M0,1050l150,0l0,-150l-150,0M800,650l150,0l0,-150l-150,0M800,450l150,0l0,-150l-150,0M0,850l150,0l0,-150l-150,0M0,250l150,0l0,-150l-150,0M800,250l150,0l0,-150l-150,0z"
       id="glyph775" /><glyph
       unicode="ѕ"
       horiz-adv-x="1000"
       d="M200,950l150,0l0,-150l-150,0M0,850l150,0l0,-150l-150,0M600,450l150,0l0,-150l-150,0M0,650l150,0l0,-150l-150,0M0,250l150,0l0,-150l-150,0M600,250l150,0l0,-150l-150,0M400,950l150,0l0,-150l-150,0M600,850l150,0l0,-150l-150,0M200,150l150,0l0,-150l-150,0M400,150l150,0l0,-150l-150,0M200,550l150,0l0,-150l-150,0M400,550l150,0l0,-150l-150,0z"
       id="glyph777" /><glyph
       unicode="ї"
       horiz-adv-x="800"
       d="M50,1350l150,0l0,-150l-150,0M0,950l150,0l0,-150l-150,0M0,150l150,0l0,-150l-150,0M200,150l150,0l0,-150l-150,0M200,750l150,0l0,-150l-150,0M400,150l150,0l0,-150l-150,0M350,1350l150,0l0,-150l-150,0M200,950l150,0l0,-150l-150,0M200,550l150,0l0,-150l-150,0M200,350l150,0l0,-150l-150,0z"
       id="glyph779" /><glyph
       unicode="А"
       horiz-adv-x="1200"
       d="M400,1350l150,0l0,-150l-150,0M0,1150l150,0l0,-150l-150,0M800,1150l150,0l0,-150l-150,0M0,350l150,0l0,-150l-150,0M800,350l150,0l0,-150l-150,0M0,750l150,0l0,-150l-150,0M800,750l150,0l0,-150l-150,0M0,150l150,0l0,-150l-150,0M200,650l150,0l0,-150l-150,0M800,150l150,0l0,-150l-150,0M400,650l150,0l0,-150l-150,0M200,1300l150,0l0,-150l-150,0M0,950l150,0l0,-150l-150,0M600,650l150,0l0,-150l-150,0M600,1300l150,0l0,-150l-150,0M800,950l150,0l0,-150l-150,0M0,550l150,0l0,-150l-150,0M800,550l150,0l0,-150l-150,0z"
       id="glyph781" /><glyph
       unicode="Б"
       horiz-adv-x="1200"
       d="M0,1350l150,0l0,-150l-150,0M400,1350l150,0l0,-150l-150,0M800,1350l150,0l0,-150l-150,0M0,750l150,0l0,-150l-150,0M800,450l150,0l0,-150l-150,0M0,350l150,0l0,-150l-150,0M200,750l150,0l0,-150l-150,0M800,250l150,0l0,-150l-150,0M400,750l150,0l0,-150l-150,0M0,150l150,0l0,-150l-150,0M200,150l150,0l0,-150l-150,0M600,750l150,0l0,-150l-150,0M400,150l150,0l0,-150l-150,0M600,150l150,0l0,-150l-150,0M200,1350l150,0l0,-150l-150,0M0,1150l150,0l0,-150l-150,0M800,650l150,0l0,-150l-150,0M600,1350l150,0l0,-150l-150,0M0,550l150,0l0,-150l-150,0M0,950l150,0l0,-150l-150,0z"
       id="glyph783" /><glyph
       unicode="В"
       horiz-adv-x="1200"
       d="M0,1350l150,0l0,-150l-150,0M400,1350l150,0l0,-150l-150,0M0,950l150,0l0,-150l-150,0M800,650l150,0l0,-150l-150,0M0,550l150,0l0,-150l-150,0M800,450l150,0l0,-150l-150,0M0,350l150,0l0,-150l-150,0M800,1250l150,0l0,-150l-150,0M800,850l150,0l0,-150l-150,0M800,250l150,0l0,-150l-150,0M0,150l150,0l0,-150l-150,0M0,750l150,0l0,-150l-150,0M200,150l150,0l0,-150l-150,0M400,150l150,0l0,-150l-150,0M200,750l150,0l0,-150l-150,0M600,150l150,0l0,-150l-150,0M200,1350l150,0l0,-150l-150,0M0,1150l150,0l0,-150l-150,0M400,750l150,0l0,-150l-150,0M600,750l150,0l0,-150l-150,0M600,1350l150,0l0,-150l-150,0M800,1050l150,0l0,-150l-150,0z"
       id="glyph785" /><glyph
       unicode="Г"
       horiz-adv-x="1200"
       d="M0,1350l150,0l0,-150l-150,0M400,1350l150,0l0,-150l-150,0M800,1350l150,0l0,-150l-150,0M0,750l150,0l0,-150l-150,0M0,550l150,0l0,-150l-150,0M0,350l150,0l0,-150l-150,0M200,1350l150,0l0,-150l-150,0M0,1150l150,0l0,-150l-150,0M0,150l150,0l0,-150l-150,0M600,1350l150,0l0,-150l-150,0M0,950l150,0l0,-150l-150,0z"
       id="glyph787" /></font>
</defs>
</svg>
